Pandorum (2009) 1080p BDRip Dual Latino-Inglés [Subt. Esp] (Ciencia ficción. Terror. Acción)

Maestro Revolver

Administrador
9 Ago 2012
3.157
54.685


Pandorum (2009) 1080p BDRip Dual Latino-Inglés [Subt. Esp] (Ciencia ficción. Terror. Acción)




Pandorum (2009) 1080p BDRip Dual Latino-Inglés [Subt. Esp] (Ciencia ficción. Terror. Acción)


TÍTULO ORIGINAL: Pandorum
AÑO: 2009
DURACIÓN: 108 min.
PAÍS: Alemania
DIRECTOR: Christian Alvart
GUIÓN: Christian Alvart, Travis Milloy
REPARTO: Ben Foster, Antje Traue, Dennis Quaid, Cung Le, Cam Gigandet, Norman Reedus, Niels-Bruno Schmidt, Yangzom Brauen, Alessija Lause
PRODUCTORA: Coproducción Alemania-Estados Unidos-Reino Unido; Constantin Film Produktion / Overture Films / Alliance Films
GÉNERO: Ciencia ficción. Terror. Acción | Aventura espacial
Pandorum (2009) 1080p BDRip Dual Latino-Inglés [Subt. Esp] (Ciencia ficción. Terror. Acción)
: http://www.imdb.com/title/tt1188729/




Pandorum (2009) 1080p BDRip Dual Latino-Inglés [Subt. Esp] (Ciencia ficción. Terror. Acción)


Dos miembros de la tripulación de una nave espacial, el Teniente Payton (Dennis Quaid) y el Cabo Bower (Ben Foster), se despiertan en sus cámaras de hibernación sin recordar nada de lo que ha sucedido: ni quiénes son, ni cuál era su misión o por qué, aparentemente, son los únicos supervivientes. Conforme se adentren en las zonas más profundas de la nave, descubrirán que no están solos, y desvelarán el terrible misterio que rodea la desaparición del resto de la tripulación y de los pasajeros. Pronto se darán cuenta de que mantenerse con vida es mucho más importante de lo que puedan imaginarse: es el único modo de evitar la extinción de la raza humana.




Pandorum (2009) 1080p BDRip Dual Latino-Inglés [Subt. Esp] (Ciencia ficción. Terror. Acción)






Pandorum (2009) 1080p BDRip Dual Latino-Inglés [Subt. Esp] (Ciencia ficción. Terror. Acción)


Pandorum (2009) 1080p BDRip Dual Latino-Inglés [Subt. Esp] (Ciencia ficción. Terror. Acción)


Pandorum (2009) 1080p BDRip Dual Latino-Inglés [Subt. Esp] (Ciencia ficción. Terror. Acción)


Pandorum (2009) 1080p BDRip Dual Latino-Inglés [Subt. Esp] (Ciencia ficción. Terror. Acción)


Pandorum (2009) 1080p BDRip Dual Latino-Inglés [Subt. Esp] (Ciencia ficción. Terror. Acción)


Pandorum (2009) 1080p BDRip Dual Latino-Inglés [Subt. Esp] (Ciencia ficción. Terror. Acción)


Pandorum (2009) 1080p BDRip Dual Latino-Inglés [Subt. Esp] (Ciencia ficción. Terror. Acción)


La pelicula NO tiene ninguna marca... solo colocamos el nombre de esta web en las capturas




Pandorum (2009) 1080p BDRip Dual Latino-Inglés [Subt. Esp] (Ciencia ficción. Terror. Acción)


Código:
General
Format                                   : Matroska
Format version                           : Version 2
File size                                : 14.8 GiB
Duration                                 : 1h 48mn
Overall bit rate                         : 19.6 Mbps
Movie name                               : www.club-hd.com
Encoded date                             : UTC 2013-06-21 03:32:35
Writing application                      : mkvmerge v5.7.0 ('The Whirlwind') built on Jul  8 2012 20:08:51
Writing library                          : libebml v1.2.3 + libmatroska v1.3.0

Video
ID                                       : 1
Format                                   : AVC
Format/Info                              : Advanced Video Codec
Format profile                           : [email protected]
Format settings, CABAC                   : Yes
Format settings, ReFrames                : 5 frames
Codec ID                                 : V_MPEG4/ISO/AVC
Duration                                 : 1h 48mn
Bit rate                                 : 17.0 Mbps
Width                                    : 1 920 pixels
Height                                   : 816 pixels
Display aspect ratio                     : 2.35:1
Frame rate mode                          : Constant
Frame rate                               : 23.976 fps
Color space                              : YUV
Chroma subsampling                       : 4:2:0
Bit depth                                : 8 bits
Scan type                                : Progressive
Bits/(Pixel*Frame)                       : 0.452
Stream size                              : 12.5 GiB (84%)
Title                                    : www.club-hd.com
Writing library                          : x264 core 130 r2273 b3065e6
Language                                 : English
Default                                  : Yes
Forced                                   : No

Audio #1
ID                                       : 2
Format                                   : AC-3
Format/Info                              : Audio Coding 3
Mode extension                           : CM (complete main)
Format settings, Endianness              : Big
Codec ID                                 : A_AC3
Duration                                 : 1h 48mn
Bit rate mode                            : Constant
Bit rate                                 : 448 Kbps
Channel(s)                               : 6 channels
Channel positions                        : Front: L C R, Side: L R, LFE
Sampling rate                            : 48.0 KHz
Bit depth                                : 16 bits
Compression mode                         : Lossy
Stream size                              : 346 MiB (2%)
Title                                    : www.club-hd.com  >>  Latino AC3
Language                                 : Spanish
Default                                  : Yes
Forced                                   : No

Audio #2
ID                                       : 3
Format                                   : AC-3
Format/Info                              : Audio Coding 3
Mode extension                           : CM (complete main)
Format settings, Endianness              : Big
Codec ID                                 : A_AC3
Duration                                 : 1h 48mn
Bit rate mode                            : Constant
Bit rate                                 : 640 Kbps
Channel(s)                               : 6 channels
Channel positions                        : Front: L C R, Side: L R, LFE
Sampling rate                            : 48.0 KHz
Bit depth                                : 16 bits
Compression mode                         : Lossy
Stream size                              : 495 MiB (3%)
Title                                    : www.club-hd.com  >>  Inglés AC3
Language                                 : English
Default                                  : No
Forced                                   : No

Audio #3
ID                                       : 4
Format                                   : DTS
Format/Info                              : Digital Theater Systems
Mode                                     : 16
Format settings, Endianness              : Big
Codec ID                                 : A_DTS
Duration                                 : 1h 48mn
Bit rate mode                            : Constant
Bit rate                                 : 1 509 Kbps
Channel(s)                               : 6 channels
Channel positions                        : Front: L C R, Side: L R, LFE
Sampling rate                            : 48.0 KHz
Bit depth                                : 24 bits
Compression mode                         : Lossy
Stream size                              : 1.14 GiB (8%)
Title                                    : www.club-hd.com  >>  Inglés DTS
Language                                 : English
Default                                  : No
Forced                                   : No

Audio #4
ID                                       : 5
Format                                   : MPEG Audio
Format version                           : Version 2
Format profile                           : Layer 3
Mode                                     : Joint stereo
Mode extension                           : MS Stereo
Codec ID                                 : A_MPEG/L3
Codec ID/Hint                            : MP3
Duration                                 : 1h 48mn
Bit rate mode                            : Constant
Bit rate                                 : 64.0 Kbps
Channel(s)                               : 2 channels
Sampling rate                            : 24.0 KHz
Compression mode                         : Lossy
Stream size                              : 49.5 MiB (0%)
Title                                    : Christian Alvart & Jeremy Bolt Commentary
Writing library                          : LAME3.99r
Encoding settings                        : -m j -V 4 -q 2 -lowpass 11 -b 64
Language                                 : English
Default                                  : No
Forced                                   : No

Text
ID                                       : 6
Format                                   : UTF-8
Codec ID                                 : S_TEXT/UTF8
Codec ID/Info                            : UTF-8 Plain Text
Language                                 : Spanish
Default                                  : No
Forced                                   : No

Menu
00:00:00.000                             : en:Elysium / Main Title
00:02:56.426                             : en:Hyper-Sleep Disorientation
00:07:46.257                             : en:Payton's Awakening
00:12:18.237                             : en:Claustrophobia
00:18:03.165                             : en:First Contact
00:28:38.634                             : en:Rescuing Shepard
00:36:41.699                             : en:A Little Solidarity
00:44:31.127                             : en:Ecological Development
00:50:09.340                             : en:Tough To Kill
00:57:23.315                             : en:Corporal Gallo
00:59:31.985                             : en:Leland The Cook
01:03:38.898                             : en:Pandorum
01:12:13.079                             : en:Race To The Reactor
01:25:28.081                             : en:Duel To The Death
01:36:48.678                             : en:Brave New World
01:41:26.205                             : en:End Credits




Pandorum (2009) 1080p BDRip Dual Latino-Inglés [Subt. Esp] (Ciencia ficción. Terror. Acción)



Pandorum (2009) 1080p BDRip Dual Latino-Inglés [Subt. Esp] (Ciencia ficción. Terror. Acción)

Enlaces de Mega solo disponibles para Miembros VIP

Compra tu Membresía VIP y apoya a Club-HD!

ATENCIÓN! Tenemos TODO el material de Club-HD disponible por Mega, enlaces 100% activos y online hasta la fecha

Llévate tus cuentas Mega PRO III gratis con tu membresía VIP!
Todos los posts vivos con links de Mega.
Todo el material de Club-HD desbloqueado y sin publicidad.

Click Aquí para más información.

Pandorum (2009) 1080p BDRip Dual Latino-Inglés [Subt. Esp] (Ciencia ficción. Terror. Acción)

Para ver este contenido oculto, debes dar click en el botón "Like", o cualquiera de las otras reacciones:

Me Gusta Me Gusta, Me Encanta Me Encanta, Jaja Jaja, Wow Wow, Triste Triste, Molesto Molesto
 
Última edición por un moderador:
28 Ago 2012
1.485
873
gracias revolver22 yo la estaba buscando por web sin ningún resultando en latino, gracias por traernos esta peli la e visto por el cable pero con esa es tupi censura la que se pierde la visión de la pelicula a descargar y ver gracias saludos
 

HemoAr

Dohko de Libra
Administrador
9 Mar 2013
8.242
39.825
Buenisimo aporte como siempre de primera calidad. Gracias Revo por tan grande aporte y por la calidad como siempre y el tiempo y esfuerzo. Para regalarnos horas de entretenimiento.
 

Nosferatu

Honorífico
31 Ago 2012
2.003
1.266
Muchas pero muchas gracias por estos aportes y no se diga en esta super calidad, 1080p.:aplausos::aplausos::aplausos:

Gracias Monstruo R22!!!:aplausos::aplausos:Tb_up3
 
Arriba