Paranoia (2013) 720p BDRip Audio Inglés [Subt. Esp] (Thriller. Drama)

Maestro Revolver

Administrador
Registro
9 Ago 2012
Mensajes
3.157
Reacciones (ptje)
54.925


Paranoia.jpg




FichaTecnica.jpg


TÍTULO ORIGINAL: Paranoia
AÑO: 2013
DURACIÓN: 106 min.
PAÍS: USA
DIRECTOR: Robert Luketic
GUIÓN: Barry Levy (Novela: Joseph Finder)
REPARTO: Liam Hemsworth, Amber Heard, Harrison Ford, Gary Oldman, Embeth Davidtz, Josh Holloway, Richard Dreyfuss, Julian McMahon, Lucas Till, Angela Sarafyan
PRODUCTORA: Coproducción EEUU-Francia; Relativity Media / Gaumont / Demarest Films / EMJAG Productions
GÉNERO: Thriller. Drama | Espionaje
imdb-logo.png
: http://www.imdb.com/title/tt1413495/




Sinopsis.jpg


Adam Cassidy (Liam Hemsworth) es un muchacho de 26 años que odia su empleo en su compañía tecnológica Wyatt Corporation. Cuando manipula el sistema para ayudar a un amigo, es acusado de un delito federal. Su empresa, a través de su jefe Nicholas Wyatt (Gary Oldman), le ofrece un trato para escapar de prisión: convertirse en espía industrial e infiltrarse en la compañía rival, propiedad de Jock Goddard (Harrison Ford), antiguo mentor de Wyatt. Adam acepta, y logra ascender rápidamente, descubriendo cualidades que jamás imaginó poseer. Ahora su vida es perfecta; adora su trabajo, tiene un Porsche y sale con la chica de sus sueños. Y todo lo que tiene que hacer es traicionar a los que le rodean.




Trailer.jpg






Capturas.jpg


1.jpg


2.jpg


3.jpg


4.jpg


5.jpg


6.jpg


La pelicula NO tiene ninguna marca... solo colocamos el nombre de esta web en las capturas




MediaInfo.jpg


Código:
General
Format                                   : Matroska
Format version                           : Version 2
File size                                : 3.72 GiB
Duration                                 : 1h 46mn
Overall bit rate                         : 5 022 Kbps
Movie name                               : www.club-hd.com
Encoded date                             : UTC 2013-11-10 20:02:53
Writing application                      : mkvmerge v5.7.0 ('The Whirlwind') built on Jul  8 2012 20:08:51
Writing library                          : libebml v1.2.3 + libmatroska v1.3.0

Video
ID                                       : 1
Format                                   : AVC
Format/Info                              : Advanced Video Codec
Format profile                           : [email protected]
Format settings, CABAC                   : Yes
Format settings, ReFrames                : 5 frames
Codec ID                                 : V_MPEG4/ISO/AVC
Duration                                 : 1h 46mn
Bit rate                                 : 4 383 Kbps
Width                                    : 1 280 pixels
Height                                   : 536 pixels
Display aspect ratio                     : 2.40:1
Frame rate mode                          : Constant
Frame rate                               : 23.976 fps
Color space                              : YUV
Chroma subsampling                       : 4:2:0
Bit depth                                : 8 bits
Scan type                                : Progressive
Bits/(Pixel*Frame)                       : 0.266
Stream size                              : 3.17 GiB (85%)
Title                                    : www.club-hd.com
Writing library                          : x264 core 140 r2377 1ca7bb9
Language                                 : English
Default                                  : Yes
Forced                                   : No

Audio
ID                                       : 2
Format                                   : AC-3
Format/Info                              : Audio Coding 3
Mode extension                           : CM (complete main)
Format settings, Endianness              : Big
Codec ID                                 : A_AC3
Duration                                 : 1h 46mn
Bit rate mode                            : Constant
Bit rate                                 : 640 Kbps
Channel(s)                               : 6 channels
Channel positions                        : Front: L C R, Side: L R, LFE
Sampling rate                            : 48.0 KHz
Bit depth                                : 16 bits
Compression mode                         : Lossy
Stream size                              : 486 MiB (13%)
Title                                    : www.club-hd.com
Language                                 : English
Default                                  : Yes
Forced                                   : No

Text
ID                                       : 3
Format                                   : UTF-8
Codec ID                                 : S_TEXT/UTF8
Codec ID/Info                            : UTF-8 Plain Text
Language                                 : Spanish
Default                                  : Yes
Forced                                   : No

Menu
00:00:00.000                             : en:00:00:00.000
00:06:54.205                             : en:00:06:54.205
00:10:31.840                             : en:00:10:31.840
00:14:12.602                             : en:00:14:12.602
00:17:02.396                             : en:00:17:02.396
00:21:41.008                             : en:00:21:41.008
00:26:29.922                             : en:00:26:29.922
00:31:31.848                             : en:00:31:31.848
00:36:47.580                             : en:00:36:47.580
00:39:37.500                             : en:00:39:37.500
00:46:08.933                             : en:00:46:08.933
00:49:15.327                             : en:00:49:15.327
00:54:37.900                             : en:00:54:37.900
00:57:30.238                             : en:00:57:30.238
00:59:16.511                             : en:00:59:16.511
01:04:02.547                             : en:01:04:02.547
01:06:58.431                             : en:01:06:58.431
01:10:14.961                             : en:01:10:14.961
01:19:23.759                             : en:01:19:23.759
01:23:21.079                             : en:01:23:21.079
01:27:37.502                             : en:01:27:37.502
01:35:06.618                             : en:01:35:06.618
01:37:53.367                             : en:01:37:53.367
01:40:59.053                             : en:01:40:59.053




Descarga.jpg



MEGA.jpg

Tenemos TODO el material de Club-HD disponible por Mega, enlaces 100% activos y online hasta la fecha

Llévate tus cuentas Mega PRO III gratis con tu membresía VIP!
Todos los posts vivos con links de Mega.
Todo el material de Club-HD desbloqueado y sin publicidad.

Obtén más información sobre nuestras Membresías VIP



UPLOADED_BANNER.png

Para ver este contenido oculto, debes dar click en el botón"Like", o cualquiera de las otras reacciones:

Me Gusta Me Gusta, Me Encanta Me Encanta, Jaja Jaja, Wow Wow, Triste Triste, Molesto Molesto


OPENLOAD.png

Para ver este contenido oculto, debes dar click en el botón"Like", o cualquiera de las otras reacciones:

Me Gusta Me Gusta, Me Encanta Me Encanta, Jaja Jaja, Wow Wow, Triste Triste, Molesto Molesto
 
Última edición por un moderador:
Muy buenos actores, uno supone que "debería" estar buena...Desc_g_
 
Muchas gracias por el aporte, y saludos, ahhh y de nuevo gracias por seguir online...
 
Volver