Paranormal Activity 4 (2012) UNRATED 1080p BDRip Dual Latino-Inglés [Subt. Esp-Ing] (Terror)

Maestro Revolver

Well-known member
Miembro del Staff
Administrador
Registro
9 Ago 2012
Mensajes
3.569
Reacciones
59.471
Puntos
113

Reputation:









TÍTULO ORIGINAL: Paranormal Activity 4
AÑO: 2012
DURACIÓN: 88 min.
PAÍS: USA
DIRECTOR: Henry Joost, Ariel Schulman
GUIÓN: Zack Estrin, Oren Peli
REPARTO: Katie Featherston, Kathryn Newton, Matt Shively, Brady Allen, Alisha Boe, Tommy Miranda
PRODUCTORA: Paramount Pictures
GÉNERO: Terror | Sobrenatural. Casas encantadas. Secuela
: http://www.imdb.com/title/tt2109184/






Todo transcurre cinco años después de los sucesos de "Paranormal Activity 2", que terminó con el secuestro de Hunter por parte de Katie. En la actualidad, Katie y Hunter, que ahora se llama 'Robbie', se han trasladado a una nueva casa y sus vecinos, Alicia y su madre, comienzan a experimentar sucesos paranormales que ocurren en su casa.
























La pelicula NO tiene ninguna marca... solo colocamos el nombre de esta web en las capturas






Código:
General
Format                                   : Matroska
Format version                           : Version 2
File size                                : 7.42 GiB
Duration                                 : 1h 36mn
Overall bit rate                         : 11.0 Mbps
Movie name                               : www.club-hd.com
Encoded date                             : UTC 2013-01-17 16:00:24
Writing application                      : mkvmerge v5.7.0 ('The Whirlwind') built on Jul  8 2012 20:08:51
Writing library                          : libebml v1.2.3 + libmatroska v1.3.0

Video
ID                                       : 1
Format                                   : AVC
Format/Info                              : Advanced Video Codec
Format profile                           : High@L4.1
Format settings, CABAC                   : Yes
Format settings, ReFrames                : 4 frames
Codec ID                                 : V_MPEG4/ISO/AVC
Duration                                 : 1h 36mn
Bit rate                                 : 8 195 Kbps
Width                                    : 1 920 pixels
Height                                   : 1 080 pixels
Display aspect ratio                     : 16:9
Frame rate mode                          : Constant
Frame rate                               : 23.976 fps
Color space                              : YUV
Chroma subsampling                       : 4:2:0
Bit depth                                : 8 bits
Scan type                                : Progressive
Bits/(Pixel*Frame)                       : 0.165
Stream size                              : 5.39 GiB (73%)
Title                                    : www.club-hd.com
Writing library                          : x264 core 129 r2245 bc13772
Language                                 : English
Default                                  : Yes
Forced                                   : No

Audio #1
ID                                       : 2
Format                                   : AC-3
Format/Info                              : Audio Coding 3
Mode extension                           : CM (complete main)
Format settings, Endianness              : Big
Codec ID                                 : A_AC3
Duration                                 : 1h 36mn
Bit rate mode                            : Constant
Bit rate                                 : 640 Kbps
Channel(s)                               : 6 channels
Channel positions                        : Front: L C R, Side: L R, LFE
Sampling rate                            : 48.0 KHz
Bit depth                                : 16 bits
Compression mode                         : Lossy
Stream size                              : 443 MiB (6%)
Title                                    : www.club-hd.com  >>  Latino AC3 5.1
Language                                 : Spanish
Default                                  : Yes
Forced                                   : No

Audio #2
ID                                       : 3
Format                                   : AC-3
Format/Info                              : Audio Coding 3
Mode extension                           : CM (complete main)
Format settings, Endianness              : Big
Codec ID                                 : A_AC3
Duration                                 : 1h 36mn
Bit rate mode                            : Constant
Bit rate                                 : 640 Kbps
Channel(s)                               : 6 channels
Channel positions                        : Front: L C R, Side: L R, LFE
Sampling rate                            : 48.0 KHz
Bit depth                                : 16 bits
Compression mode                         : Lossy
Stream size                              : 443 MiB (6%)
Title                                    : www.club-hd.com  >>  Inglés AC3 5.1
Language                                 : English
Default                                  : No
Forced                                   : No

Audio #3
ID                                       : 4
Format                                   : DTS
Format/Info                              : Digital Theater Systems
Mode                                     : 16
Format settings, Endianness              : Big
Codec ID                                 : A_DTS
Duration                                 : 1h 36mn
Bit rate mode                            : Constant
Bit rate                                 : 1 509 Kbps
Channel(s)                               : 6 channels
Channel positions                        : Front: L C R, Side: L R, LFE
Sampling rate                            : 48.0 KHz
Bit depth                                : 24 bits
Compression mode                         : Lossy
Stream size                              : 1.02 GiB (14%)
Title                                    : www.club-hd.com  >>  Inglés DTS 5.1
Language                                 : English
Default                                  : No
Forced                                   : No

Text #1
ID                                       : 5
Format                                   : UTF-8
Codec ID                                 : S_TEXT/UTF8
Codec ID/Info                            : UTF-8 Plain Text
Title                                    : Forzados
Language                                 : Spanish
Default                                  : Yes
Forced                                   : No

Text #2
ID                                       : 6
Format                                   : UTF-8
Codec ID                                 : S_TEXT/UTF8
Codec ID/Info                            : UTF-8 Plain Text
Language                                 : Spanish
Default                                  : No
Forced                                   : No

Text #3
ID                                       : 7
Format                                   : UTF-8
Codec ID                                 : S_TEXT/UTF8
Codec ID/Info                            : UTF-8 Plain Text
Language                                 : English
Default                                  : No
Forced                                   : No

Menu
00:00:00.000                             : en:00:00:00.000
00:11:58.343                             : en:00:11:58.343
00:24:36.475                             : en:00:24:36.475
00:31:12.078                             : en:00:31:12.078
00:34:09.047                             : en:00:34:09.047
00:40:50.448                             : en:00:40:50.448
00:44:05.059                             : en:00:44:05.059
00:46:10.768                             : en:00:46:10.768
00:55:44.341                             : en:00:55:44.341
01:00:02.599                             : en:01:00:02.599
01:04:09.262                             : en:01:04:09.262
01:11:46.302                             : en:01:11:46.302
01:16:00.556                             : en:01:16:00.556
01:22:23.564                             : en:01:22:23.564
01:32:08.815                             : en:01:32:08.815










Enlaces de Mega y Fireload solo disponibles para Miembros VIP

Compra tu Membresía VIP y apoya a Club-HD!

ATENCIÓN! Tenemos TODO el material de Club-HD disponible por Mega y Fireload, enlaces 100% activos y online hasta la fecha

Llévate tus cuentas Mega PRO II gratis con tu membresía VIP!
Todos los posts vivos con links de Mega y Fireload.
Todo el material de Club-HD desbloqueado y sin publicidad.

Click Aquí para más información.




Enlaces de Mega y Fireload solo disponibles para Miembros VIP

Compra tu Membresía VIP y apoya a Club-HD!

ATENCIÓN! Tenemos TODO el material de Club-HD disponible por Mega y Fireload, enlaces 100% activos y online hasta la fecha

Llévate tus cuentas Mega PRO II gratis con tu membresía VIP!
Todos los posts vivos con links de Mega y Fireload.
Todo el material de Club-HD desbloqueado y sin publicidad.

Click Aquí para más información.

Enlaces de Mega y Fireload solo disponibles para Miembros VIP

Compra tu Membresía VIP y apoya a Club-HD!

ATENCIÓN! Tenemos TODO el material de Club-HD disponible por Mega y Fireload, enlaces 100% activos y online hasta la fecha

Llévate tus cuentas Mega PRO II gratis con tu membresía VIP!
Todos los posts vivos con links de Mega y Fireload.
Todo el material de Club-HD desbloqueado y sin publicidad.

Click Aquí para más información.

Para ver este contenido oculto, debes dar click en una de las siguientes reacciones : Like Like, Love Love, Haha Haha, Wow Wow, Sad Sad, Angry Angry

Para ver este contenido oculto, debes dar click en una de las siguientes reacciones : Like Like, Love Love, Haha Haha, Wow Wow, Sad Sad, Angry Angry
 
Última edición:

Ezze

Well-known member
Miembro del Staff
Súper Moderador
Registro
28 Ago 2012
Mensajes
1.664
Reacciones
1.795
Puntos
113
Ubicación
En la Torre de Observación

Reputation:

bye Graaaaaaaaaaaaaaan aporte!!!!!! Que padazo de película!!! Muy esperada... Gracias Rev por el esfuerzo!!! :aplausos:
 

Maestro Revolver

Well-known member
Miembro del Staff
Administrador
Registro
9 Ago 2012
Mensajes
3.569
Reacciones
59.471
Puntos
113

Reputation:

bye Graaaaaaaaaaaaaaan aporte!!!!!! Que padazo de película!!! Muy esperada... Gracias Rev por el esfuerzo!!! :aplausos:

Gracias Ezze, y aprovecho para decirles que el audio Español Latino es del bluray Ac3 5.1 , 640 Kbps :dplgar:
 

Max

Admin
Miembro del Staff
Administrador
Registro
8 Ago 2012
Mensajes
5.764
Reacciones
24.070
Puntos
113
Ubicación
Disco C

Reputation:

Qué gran aporte!! Sos el más grande y el mejor Max! :LXR::LXR::LXR::LXR::LXR::LXR::LXR:














pardonpardonpardonpardonpardonpardonpardonpardonpardonpardonpardon
 

arkkangeldark

Well-known member
Registro
27 Ago 2012
Mensajes
3.449
Reacciones
577
Puntos
113
Edad
34
Ubicación
Torreon Coahuila

Reputation:

gran aporte revolver, esta peli la estaba esperando un buen rato, la vi en el cine pero no era la edicion sin censura, asi que veamos que otros sustos tiene esos minutos extras
 

Mate78

Ladron de mi cerebro
Miembro del Staff
Súper Moderador
Registro
27 Ago 2012
Mensajes
1.237
Reacciones
924
Puntos
113

Reputation:

Querian Miedo ????? aca taaaaaa , gracias BESTIA !!!!!!!
 

cambanato

New member
Registro
27 Ago 2012
Mensajes
14
Reacciones
1
Puntos
0
Edad
33

Reputation:

gracias maestro
espero la version 720P por favor
 

xclay

New member
Registro
19 Nov 2012
Mensajes
22
Reacciones
0
Puntos
0

Reputation:

la bajare para ver que tal esta gracias revolver
 

Usuarios Que Están Viendo Este Tema (Total: 1, Miembros: 0, Invitados: 1)

Arriba