ParaNorman (2012) 1080p BDRip Dual Latino-Inglés [Subt. Esp-Ing] (Animación)

Maestro Revolver

Administrador
Registro
9 Ago 2012
Mensajes
3.157
Reacciones (ptje)
55.165

Aporte Recuperado gracias a nuestros amigos sharklui y YagamiLamperouge

ParaNorman-1080p.jpg




FICHA_TECNICA.png


TÍTULO ORIGINAL: ParaNorman
AÑO: 2012
DURACIÓN: 92 min.
PAÍS: USA
DIRECTOR: Chris Butler, Sam Fell
GUIÓN: Chris Butler
REPARTO: Animation
PRODUCTORA: Focus Features / LAIKA
GÉNERO: Animación. Fantástico. Comedia | Comedia de terror. Zombis. Stop Motion. 3-D
imdb-logo.png
http://www.imdb.com/title/tt1623288/



SINOPSIS.png


Los aterrorizados habitantes de un pueblo asediado por zombis sólo pueden pedir ayuda al incomprendido Norman, un joven que sabe hablar con los muertos. Pero éste, para salvar a su pueblo de una antigua maldición, no sólo tendrá que enfrentarse con zombis, sino también con brujas y, sobre todo, con un grupo de adultos subnormales.




TRAILER.png






CAPTURAS.png


1.jpg


2.jpg


3.jpg


4.jpg


5.jpg


6.jpg


La pelicula NO tiene ninguna marca... solo colocamos el nombre de esta web en las capturas




DATOS_TECNICOS.png


Código:
General
Format                                   : Matroska
Format version                           : Version 2
File size                                : 5.19 GiB
Duration                                 : 1h 32mn
Overall bit rate                         : 8 061 Kbps
Movie name                               : www.club-hd.com
Encoded date                             : UTC 2012-11-18 07:26:38
Writing application                      : mkvmerge v5.7.0 ('The Whirlwind') built on Jul  8 2012 20:08:51
Writing library                          : libebml v1.2.3 + libmatroska v1.3.0

Video
ID                                       : 1
Format                                   : AVC
Format/Info                              : Advanced Video Codec
Format profile                           : [email protected]
Format settings, CABAC                   : Yes
Format settings, ReFrames                : 5 frames
Codec ID                                 : V_MPEG4/ISO/AVC
Duration                                 : 1h 32mn
Bit rate                                 : 5 269 Kbps
Width                                    : 1 920 pixels
Height                                   : 800 pixels
Display aspect ratio                     : 2.40:1
Frame rate mode                          : Constant
Frame rate                               : 23.976 fps
Color space                              : YUV
Chroma subsampling                       : 4:2:0
Bit depth                                : 8 bits
Scan type                                : Progressive
Bits/(Pixel*Frame)                       : 0.143
Stream size                              : 3.29 GiB (63%)
Title                                    : www.club-hd.com
Writing library                          : x264 core 129 r2230 1cffe9f
Language                                 : English
Default                                  : Yes
Forced                                   : No

Audio #1
ID                                       : 2
Format                                   : AC-3
Format/Info                              : Audio Coding 3
Mode extension                           : CM (complete main)
Format settings, Endianness              : Big
Codec ID                                 : A_AC3
Duration                                 : 1h 32mn
Bit rate mode                            : Constant
Bit rate                                 : 640 Kbps
Channel(s)                               : 6 channels
Channel positions                        : Front: L C R, Side: L R, LFE
Sampling rate                            : 48.0 KHz
Bit depth                                : 16 bits
Compression mode                         : Lossy
Stream size                              : 422 MiB (8%)
Title                                    : www.club-hd.com  >>  Latino AC3 5.1
Language                                 : Spanish
Default                                  : Yes
Forced                                   : No

Audio #2
ID                                       : 3
Format                                   : AC-3
Format/Info                              : Audio Coding 3
Mode extension                           : CM (complete main)
Format settings, Endianness              : Big
Codec ID                                 : A_AC3
Duration                                 : 1h 32mn
Bit rate mode                            : Constant
Bit rate                                 : 640 Kbps
Channel(s)                               : 6 channels
Channel positions                        : Front: L C R, Side: L R, LFE
Sampling rate                            : 48.0 KHz
Bit depth                                : 16 bits
Compression mode                         : Lossy
Stream size                              : 422 MiB (8%)
Title                                    : www.club-hd.com  >>  Inglés AC3 5.1
Language                                 : English
Default                                  : No
Forced                                   : No

Audio #3
ID                                       : 4
Format                                   : DTS
Format/Info                              : Digital Theater Systems
Mode                                     : 16
Format settings, Endianness              : Big
Codec ID                                 : A_DTS
Duration                                 : 1h 32mn
Bit rate mode                            : Constant
Bit rate                                 : 1 509 Kbps
Channel(s)                               : 6 channels
Channel positions                        : Front: L C R, Side: L R, LFE
Sampling rate                            : 48.0 KHz
Bit depth                                : 24 bits
Compression mode                         : Lossy
Stream size                              : 996 MiB (19%)
Title                                    : www.club-hd.com  >>  Inglés DTS 5.1
Language                                 : English
Default                                  : No
Forced                                   : No

Text #1
ID                                       : 5
Format                                   : UTF-8
Codec ID                                 : S_TEXT/UTF8
Codec ID/Info                            : UTF-8 Plain Text
Title                                    : Forzados
Language                                 : Spanish
Default                                  : Yes
Forced                                   : No

Text #2
ID                                       : 6
Format                                   : UTF-8
Codec ID                                 : S_TEXT/UTF8
Codec ID/Info                            : UTF-8 Plain Text
Language                                 : Spanish
Default                                  : No
Forced                                   : No

Text #3
ID                                       : 7
Format                                   : UTF-8
Codec ID                                 : S_TEXT/UTF8
Codec ID/Info                            : UTF-8 Plain Text
Language                                 : English
Default                                  : No
Forced                                   : No

Menu
00:00:00.000                             : en:00:00:00.000
00:04:55.420                             : en:00:04:55.420
00:08:29.426                             : en:00:08:29.426
00:11:38.865                             : en:00:11:38.865
00:15:10.576                             : en:00:15:10.576
00:18:10.673                             : en:00:18:10.673
00:21:54.146                             : en:00:21:54.146
00:26:25.501                             : en:00:26:25.501
00:30:04.970                             : en:00:30:04.970
00:33:56.117                             : en:00:33:56.117
00:38:16.920                             : en:00:38:16.920
00:43:06.542                             : en:00:43:06.542
00:49:36.849                             : en:00:49:36.849
00:52:46.789                             : en:00:52:46.789
00:56:46.194                             : en:00:56:46.194
01:01:15.964                             : en:01:01:15.964
01:05:53.575                             : en:01:05:53.575
01:11:51.057                             : en:01:11:51.057
01:18:19.486                             : en:01:18:19.486
01:25:07.394                             : en:01:25:07.394




CONTRASE%C3%91A-FINAL.png



Código:
www.club-hd.com[/CENTER]




DESCARGA-FINAL.png



Todos los links son Intercambiables!



google-drive-vip.png


Tenemos TODO el material de Club-HD disponible por Mega, enlaces 100% activos y online hasta la fecha

Llévate tus cuentas Mega PRO III gratis con tu membresía VIP!
Todos los posts vivos con links de Mega.
Todo el material de Club-HD desbloqueado y sin publicidad.

Obtén más información sobre nuestras Membresías VIP




MEGA-BANNER.png

Tenemos TODO el material de Club-HD disponible por Mega, enlaces 100% activos y online hasta la fecha

Llévate tus cuentas Mega PRO III gratis con tu membresía VIP!
Todos los posts vivos con links de Mega.
Todo el material de Club-HD desbloqueado y sin publicidad.

Obtén más información sobre nuestras Membresías VIP



UPLOADED_BANNER.png

Para ver este contenido oculto, debes dar click en el botón"Like", o cualquiera de las otras reacciones:

Me Gusta Me Gusta, Me Encanta Me Encanta, Jaja Jaja, Wow Wow, Triste Triste, Molesto Molesto
 
Última edición por un moderador:
Perfect master ojala la postees en 720, gracias los peques te lo agradecen
 
gracias revolver excelente calidad y no pesa mucho, me la llevo para que alrato la vean mis sobrinos, yo la vi en el cine y si esta chida.
 
Gracias Mister R21!, para los peques de la casa.:aplausos::aplausos:
 
Qué buena! Pero voy a darle chance a la versión 720.
Apuesto q si hubiera sido de Burton habría sido un exitazo.

Muchas gracias señores!!
 
Volver