Parker (2013) m-720p BDRip Dual Latino-Inglés [Subt. Esp] (Acción. Thriller)

Maestro Revolver

Well-known member
Miembro del Staff
Administrador
Registro
9 Ago 2012
Mensajes
3.567








TÍTULO ORIGINAL: Parker
AÑO: 2013
DURACIÓN: 118 min.
PAÍS: USA
DIRECTOR: Taylor Hackford
GUIÓN: John J. McLaughlin (Libros: Donald E. Westlake)
REPARTO: Jason Statham, Jennifer Lopez, Nick Nolte, Michael Chiklis, Clifton Collins Jr., Daniel Bernhardt
PRODUCTORA: Incentive Filmed Entertainment
GÉNERO: Acción. Thriller | Crimen
: http://www.imdb.com/title/tt1904996/






Parker (Jason Statham) es un ladrón con un código ético muy particular: sólo roba a los ricos. Tras una operación, es traicionado por su equipo y dado por muerto. Entonces decide adoptar una nueva identidad; lo que se propone, con la ayuda de una hermosa mujer (Jennifer Lopez), es apoderarse del botín y que sus antiguos socios lamenten haberse cruzado en su camino.
























La pelicula NO tiene ninguna marca... solo colocamos el nombre de esta web en las capturas






Código:
General
Format                                   : Matroska
Format version                           : Version 2
File size                                : 3.07 GiB
Duration                                 : 1h 58mn
Overall bit rate                         : 3 702 Kbps
Movie name                               : www.club-hd.com
Encoded date                             : UTC 2013-07-06 13:52:05
Writing application                      : mkvmerge v5.7.0 ('The Whirlwind') built on Jul  8 2012 20:08:51
Writing library                          : libebml v1.2.3 + libmatroska v1.3.0

Video
ID                                       : 1
Format                                   : AVC
Format/Info                              : Advanced Video Codec
Format profile                           : High@L4.1
Format settings, CABAC                   : Yes
Format settings, ReFrames                : 9 frames
Codec ID                                 : V_MPEG4/ISO/AVC
Duration                                 : 1h 58mn
Bit rate                                 : 2 740 Kbps
Width                                    : 1 280 pixels
Height                                   : 534 pixels
Display aspect ratio                     : 2.40:1
Frame rate mode                          : Constant
Frame rate                               : 23.976 fps
Color space                              : YUV
Chroma subsampling                       : 4:2:0
Bit depth                                : 8 bits
Scan type                                : Progressive
Bits/(Pixel*Frame)                       : 0.167
Stream size                              : 2.21 GiB (72%)
Title                                    : www.club-hd.com
Writing library                          : x264 core 130 r2273 b3065e6
Language                                 : English
Default                                  : Yes
Forced                                   : No

Audio #1
ID                                       : 2
Format                                   : AC-3
Format/Info                              : Audio Coding 3
Mode extension                           : CM (complete main)
Format settings, Endianness              : Big
Codec ID                                 : A_AC3
Duration                                 : 1h 58mn
Bit rate mode                            : Constant
Bit rate                                 : 320 Kbps
Channel(s)                               : 6 channels
Channel positions                        : Front: L C R, Side: L R, LFE
Sampling rate                            : 48.0 KHz
Bit depth                                : 16 bits
Compression mode                         : Lossy
Stream size                              : 272 MiB (9%)
Title                                    : www.club-hd.com  >>  Latino
Language                                 : Spanish
Default                                  : Yes
Forced                                   : No

Audio #2
ID                                       : 3
Format                                   : AC-3
Format/Info                              : Audio Coding 3
Mode extension                           : CM (complete main)
Format settings, Endianness              : Big
Codec ID                                 : A_AC3
Duration                                 : 1h 58mn
Bit rate mode                            : Constant
Bit rate                                 : 640 Kbps
Channel(s)                               : 6 channels
Channel positions                        : Front: L C R, Side: L R, LFE
Sampling rate                            : 48.0 KHz
Bit depth                                : 16 bits
Compression mode                         : Lossy
Stream size                              : 543 MiB (17%)
Title                                    : www.club-hd.com  >>  Inglés
Language                                 : English
Default                                  : No
Forced                                   : No

Text
ID                                       : 4
Format                                   : UTF-8
Codec ID                                 : S_TEXT/UTF8
Codec ID/Info                            : UTF-8 Plain Text
Language                                 : Spanish
Default                                  : No
Forced                                   : No

Menu
00:00:00.000                             : en:Chapter 1
00:06:14.708                             : en:Chapter 2
00:14:00.923                             : en:Chapter 3
00:19:29.585                             : en:Chapter 4
00:26:25.000                             : en:Chapter 5
00:31:46.488                             : en:Chapter 6
00:38:26.804                             : en:Chapter 7
00:42:27.920                             : en:Chapter 8
00:49:46.275                             : en:Chapter 9
00:55:07.638                             : en:Chapter 10
01:01:11.376                             : en:Chapter 11
01:06:21.561                             : en:Chapter 12
01:11:51.349                             : en:Chapter 13
01:22:34.533                             : en:Chapter 14
01:30:46.274                             : en:Chapter 15
01:38:12.220                             : en:Chapter 16








Enlaces de Mega y Google Drive solo disponibles para Miembros VIP

Compra tu Membresía VIP y apoya a Club-HD!

ATENCIÓN! Tenemos TODO el material de Club-HD disponible por Mega y Google Drive, enlaces 100% activos y online hasta la fecha

Llévate tus cuentas Mega PRO III gratis con tu membresía VIP!
Todos los posts vivos con links de Mega y Google Drive.
Todo el material de Club-HD desbloqueado y sin publicidad.

Click Aquí para más información.


Para ver este contenido oculto, debes dar click en una de las siguientes reacciones : Like Like, Love Love, Haha Haha, Wow Wow, Sad Sad, Angry Angry



 
Última edición por un moderador:

HemoAr

Dohko de Libra
Administrador
Uploader
Miembro VIP
Registro
9 Mar 2013
Mensajes
10.597
Ubicación
Rozan
Super a actualizarla y cambiarla por dual :dplgar: Muchas Gracias Revolver por el trabajo, tiempo y dedicacion para subir en 720p y dual. :bsrs:bye
 

Usuarios Que Están Viendo Este Tema (Total: 1, Miembros: 0, Invitados: 1)

Quién Leyó Este Tema (Total Miembros: 1)

Arriba