Paul McCartney & Wings – Rockshow In Concert (1980) 720p BDRip [AC3 - DTS] (Concierto)

Maestro Revolver

Administrador
Registro
9 Ago 2012
Mensajes
3.157
Reacciones (ptje)
55.042

Paul-McCartney-Rockshow.jpg





Track List:

01. Venus and Mars
02. Rock Show”
03. Jet
04. Let Me Roll It
05. Spirits of Ancient Egypt
06. Medicine Jar
07. Maybe I’m Amazed
08. Call Me Back Again
09. Lady Madonna”
10. The Long and Winding Road
11. Live and Let Die
12. Picasso’s Last Words (Drink to Me)
13. Richard Cory
14. Bluebird
15. I’ve Just Seen a Face
16. Blackbird
17. Yesterday
18. You Gave Me the Answer
19. Magneto and Titanium Man
20. Go Now
21. My Love
22. Listen to What the Man Said
23. Let ‘Em In
24. Time to Hide
25. Silly Love Songs
26. Beware My Love
27. Letting Go
28. Band on the Run
29. Hi, Hi, Hi
30. Soily




Trailer.jpg






Capturas.jpg


1.jpg


2.jpg


3.jpg


4.jpg


5.jpg


6.jpg





MediaInfo.jpg


Código:
General
Format                                   : Matroska
Format version                           : Version 2
File size                                : 7.67 GiB
Duration                                 : 2h 9mn
Overall bit rate mode                    : Variable
Overall bit rate                         : 8 476 Kbps
Movie name                               : www.club-hd.com
Encoded date                             : UTC 2013-12-06 03:58:10
Writing application                      : mkvmerge v5.7.0 ('The Whirlwind') built on Jul  8 2012 20:08:51
Writing library                          : libebml v1.2.3 + libmatroska v1.3.0

Video
ID                                       : 1
Format                                   : AVC
Format/Info                              : Advanced Video Codec
Format profile                           : [email protected]
Format settings, CABAC                   : Yes
Format settings, ReFrames                : 8 frames
Codec ID                                 : V_MPEG4/ISO/AVC
Duration                                 : 2h 9mn
Bit rate mode                            : Variable
Bit rate                                 : 6 331 Kbps
Maximum bit rate                         : 40.0 Mbps
Width                                    : 1 280 pixels
Height                                   : 688 pixels
Display aspect ratio                     : 1.85:1
Frame rate mode                          : Constant
Frame rate                               : 23.976 fps
Color space                              : YUV
Chroma subsampling                       : 4:2:0
Bit depth                                : 8 bits
Scan type                                : Progressive
Bits/(Pixel*Frame)                       : 0.300
Stream size                              : 5.57 GiB (73%)
Title                                    : www.club-hd.com
Writing library                          : x264 core 133 r2334 a3ac64b
Language                                 : English
Default                                  : Yes
Forced                                   : No

Audio #1
ID                                       : 2
Format                                   : DTS
Format/Info                              : Digital Theater Systems
Format profile                           : 96/24 / Core
Mode                                     : 16
Format settings, Endianness              : Big
Codec ID                                 : A_DTS
Duration                                 : 2h 9mn
Bit rate mode                            : Constant
Bit rate                                 : 1 509 Kbps
Channel(s)                               : 6 channels
Channel positions                        : Front: L C R, Side: L R, LFE
Sampling rate                            : 96.0 KHz / 48.0 KHz
Bit depth                                : 24 bits
Compression mode                         : Lossy
Stream size                              : 1.36 GiB (18%)
Title                                    : DTS
Language                                 : English
Default                                  : Yes
Forced                                   : No

Audio #2
ID                                       : 3
Format                                   : AC-3
Format/Info                              : Audio Coding 3
Mode extension                           : CM (complete main)
Format settings, Endianness              : Big
Codec ID                                 : A_AC3
Duration                                 : 2h 9mn
Bit rate mode                            : Constant
Bit rate                                 : 640 Kbps
Channel(s)                               : 6 channels
Channel positions                        : Front: L C R, Side: L R, LFE
Sampling rate                            : 48.0 KHz
Bit depth                                : 16 bits
Compression mode                         : Lossy
Stream size                              : 593 MiB (8%)
Title                                    : AC3
Language                                 : English
Default                                  : No
Forced                                   : No

Menu
00:00:00.000                             : en:00:00:00.000
00:10:39.430                             : en:00:10:39.430
00:14:34.207                             : en:00:14:34.207
00:19:06.145                             : en:00:19:06.145
00:23:21.817                             : en:00:23:21.817
00:29:05.911                             : en:00:29:05.911
00:34:22.060                             : en:00:34:22.060
00:38:36.981                             : en:00:38:36.981
00:43:12.715                             : en:00:43:12.715
00:47:15.541                             : en:00:47:15.541
00:49:34.930                             : en:00:49:34.930
00:52:35.194                             : en:00:52:35.194
00:56:43.984                             : en:00:56:43.984
00:59:13.550                             : en:00:59:13.550
01:02:13.146                             : en:01:02:13.146
01:04:40.168                             : en:01:04:40.168
01:07:11.611                             : en:01:07:11.611
01:10:42.113                             : en:01:10:42.113
01:14:42.478                             : en:01:14:42.478
01:19:09.745                             : en:01:19:09.745
01:23:01.059                             : en:01:23:01.059
01:28:00.901                             : en:01:28:00.901
01:33:00.033                             : en:01:33:00.033
01:39:19.245                             : en:01:39:19.245
01:46:31.468                             : en:01:46:31.468
01:51:01.655                             : en:01:51:01.655
01:57:43.473                             : en:01:57:43.473
02:01:35.288                             : en:02:01:35.288




Descarga.jpg



MEGA.jpg

Tenemos TODO el material de Club-HD disponible por Mega, enlaces 100% activos y online hasta la fecha

Llévate tus cuentas Mega PRO III gratis con tu membresía VIP!
Todos los posts vivos con links de Mega.
Todo el material de Club-HD desbloqueado y sin publicidad.

Obtén más información sobre nuestras Membresías VIP



UPLOADED_BANNER.png

Para ver este contenido oculto, debes dar click en el botón"Like", o cualquiera de las otras reacciones:

Me Gusta Me Gusta, Me Encanta Me Encanta, Jaja Jaja, Wow Wow, Triste Triste, Molesto Molesto

 
Última edición por un moderador:
Gracias Men EXCELENTE Aporte :aplausos: :aplausos: :dplgar: :aplausos: :dplgar: Tb_up3 Desc_g_ Tb_up3 :dplgar: :aplausos: :dplgar: :aplausos: :aplausos:
 
:aplausos:Como estamos ehhhhhhPl4yb0y
 
Muchas Gracias!!!


Uuuuuuuuhhhhhhhhh.........:drg:....................:drg:..................Gracias Revol, que buen recital que subistes, loco!!! :drg:........

paulmccartney.png


.......y tambien te queria decir que.......:drg:..........que.........:drg:.........me olvide lo que te iva a deciiiiirrrr!!!.....:drg: :crcjd:
......................:drg:..............................:drg:...........................................:drg:...............................
.....................................:drg:.......................................:drg:...............................................:drg:.............
...............Ah!.....ya me acorde...........:drg:..........mañana paso y te dejo unos puntines por este post, por que los de hoy ya los gaste. :cnfus: xD :drg:......:drg:
 
Me muero, no puede ser, super genial, muchas gracias :D :D :D Descargando
 
Volver