Percy Jackson and the Olympians: The Lightning Thief (2010) 1080p BDRip Dual Latino-Inglés [Subt. Esp] (Fantástico. Aventura)

Maestro Revolver

Administrador
Registro
9 Ago 2012
Mensajes
3.157
Reacciones (ptje)
55.034


Percy-Jackson-1-1080p.jpg




FichaTecnica.jpg


TÍTULO ORIGINAL: Percy Jackson and the Olympians: The Lightning Thief
AÑO: 2010
DURACIÓN: 118 min.
PAÍS: USA
DIRECTOR: Chris Columbus
GUIÓN: Craig Titley (Historia: Rick Riordan)
REPARTO: Logan Lerman, Brandon T. Jackson, Alexandra Daddario, Pierce Brosnan, Catherine Keener, Rosario Dawson, Uma Thurman, Sean Bean, Kevin McKidd, Steve Coogan, Joe Pantoliano, Melina Kanakaredes, Erica Cerra, Chelan Simmons, Jake Abel, Serinda Swan, Luke Camilleri, Stefanie von Pfetten
PRODUCTORA: Coproducción EEUU-Canadá; 1492 Pictures / Fox 2000 Pictures / Imprint Entertainmen
GÉNERO: Fantástico. Aventuras. Comedia | Mitología. Adolescencia
imdb-logo.png
: http://www.imdb.com/title/tt0814255/




Sinopsis.jpg


Adaptación de la novela publicada en España con el título de 'El Ladrón del Rayo. Tras su estancia en un campamento, Percy, un chico aparentemente normal, (Lerman) averigua que es hijo de Poseidón, el dios de los mares, y que sus dos amigos son: uno también un semidiós y el otro un sátiro. Los tres recorrerán un país plagado de monstruos mitológicos, para restaurar el orden cósmico antes de que se ponga el sol en el día más largo del año. Percy trata de recuperar la paz, rescatar a su madre, conocer a su padre y comprender quién es él mismo. Todo un reto que debe superar en apenas diez días.




Trailer.jpg






Capturas.jpg


1.jpg


2.jpg


3.jpg


4.jpg


5.jpg


6.jpg


La pelicula NO tiene ninguna marca... solo colocamos el nombre de esta web en las capturas




MediaInfo.jpg


Código:
General
Format                                   : Matroska
Format version                           : Version 2
File size                                : 11.8 GiB
Duration                                 : 1h 58mn
Overall bit rate                         : 14.2 Mbps
Movie name                               : www.club-hd.com
Encoded date                             : UTC 2013-11-27 23:26:01
Writing application                      : mkvmerge v5.7.0 ('The Whirlwind') built on Jul  8 2012 20:08:51
Writing library                          : libebml v1.2.3 + libmatroska v1.3.0

Video
ID                                       : 1
Format                                   : AVC
Format/Info                              : Advanced Video Codec
Format profile                           : [email protected]
Format settings, CABAC                   : Yes
Format settings, ReFrames                : 5 frames
Codec ID                                 : V_MPEG4/ISO/AVC
Duration                                 : 1h 58mn
Bit rate                                 : 11.6 Mbps
Width                                    : 1 920 pixels
Height                                   : 816 pixels
Display aspect ratio                     : 2.35:1
Frame rate mode                          : Constant
Frame rate                               : 23.976 fps
Color space                              : YUV
Chroma subsampling                       : 4:2:0
Bit depth                                : 8 bits
Scan type                                : Progressive
Bits/(Pixel*Frame)                       : 0.310
Stream size                              : 9.38 GiB (80%)
Title                                    : www.club-hd.com
Writing library                          : x264 core 88 r1471 1144615
Language                                 : English
Default                                  : Yes
Forced                                   : No

Audio #1
ID                                       : 2
Format                                   : AC-3
Format/Info                              : Audio Coding 3
Mode extension                           : CM (complete main)
Format settings, Endianness              : Big
Codec ID                                 : A_AC3
Duration                                 : 1h 58mn
Bit rate mode                            : Constant
Bit rate                                 : 448 Kbps
Channel(s)                               : 6 channels
Channel positions                        : Front: L C R, Side: L R, LFE
Sampling rate                            : 48.0 KHz
Bit depth                                : 16 bits
Compression mode                         : Lossy
Delay relative to video                  : 1s 0ms
Stream size                              : 380 MiB (3%)
Title                                    : www.club-hd.com  >>  Latino AC3 5.1
Language                                 : Spanish
Default                                  : Yes
Forced                                   : No

Audio #2
ID                                       : 3
Format                                   : AC-3
Format/Info                              : Audio Coding 3
Mode extension                           : CM (complete main)
Format settings, Endianness              : Big
Codec ID                                 : A_AC3
Duration                                 : 1h 58mn
Bit rate mode                            : Constant
Bit rate                                 : 640 Kbps
Channel(s)                               : 6 channels
Channel positions                        : Front: L C R, Side: L R, LFE
Sampling rate                            : 48.0 KHz
Bit depth                                : 16 bits
Compression mode                         : Lossy
Stream size                              : 543 MiB (5%)
Title                                    : www.club-hd.com  >>  Inglés AC3 5.1
Language                                 : English
Default                                  : No
Forced                                   : No

Audio #3
ID                                       : 4
Format                                   : DTS
Format/Info                              : Digital Theater Systems
Mode                                     : 16
Format settings, Endianness              : Big
Codec ID                                 : A_DTS
Duration                                 : 1h 58mn
Bit rate mode                            : Constant
Bit rate                                 : 1 509 Kbps
Channel(s)                               : 6 channels
Channel positions                        : Front: L C R, Side: L R, LFE
Sampling rate                            : 48.0 KHz
Bit depth                                : 24 bits
Compression mode                         : Lossy
Stream size                              : 1.25 GiB (11%)
Title                                    : www.club-hd.com  >>  Inglés DTS 5.1
Language                                 : English
Default                                  : No
Forced                                   : No

Text
ID                                       : 5
Format                                   : UTF-8
Codec ID                                 : S_TEXT/UTF8
Codec ID/Info                            : UTF-8 Plain Text
Language                                 : Spanish
Default                                  : No
Forced                                   : No




Descarga.jpg



MEGA.jpg

Tenemos TODO el material de Club-HD disponible por Mega, enlaces 100% activos y online hasta la fecha

Llévate tus cuentas Mega PRO III gratis con tu membresía VIP!
Todos los posts vivos con links de Mega.
Todo el material de Club-HD desbloqueado y sin publicidad.

Obtén más información sobre nuestras Membresías VIP


1FICHIER-VIP.png


Tenemos TODO el material de Club-HD disponible por Mega, enlaces 100% activos y online hasta la fecha

Llévate tus cuentas Mega PRO III gratis con tu membresía VIP!
Todos los posts vivos con links de Mega.
Todo el material de Club-HD desbloqueado y sin publicidad.

Obtén más información sobre nuestras Membresías VIP


UPLOADED_BANNER.png

Para ver este contenido oculto, debes dar click en el botón"Like", o cualquiera de las otras reacciones:

Me Gusta Me Gusta, Me Encanta Me Encanta, Jaja Jaja, Wow Wow, Triste Triste, Molesto Molesto

OPENLOAD.png

Para ver este contenido oculto, debes dar click en el botón"Like", o cualquiera de las otras reacciones:

Me Gusta Me Gusta, Me Encanta Me Encanta, Jaja Jaja, Wow Wow, Triste Triste, Molesto Molesto
 
Última edición por un moderador:
Excelente Master!!!

Ahora tenemos también la primera :D
Aunque estas películas no las he visto y como que no me convence, no se si descargar la versión ligera o esta Pnsand0... Ahorita vemos eso :p

Gracias!!!

Saludos :D
 
Muchas gracias Revolver :aplausos: Buen aporte... Esperaré la versión más liviana :D Aunque todavía tengo problemas con mi internet wh1p Igual se valora el esfuerzo ;) Saludos bye
 
Muchas Gracias!!!


Doctor Jason y Su Data Inútil:

Esta fue la adaptación del 1° de los 5 libros que consta esta aventura fantástica. Así que parece que la pego más o menos porque ya salió la segunda parte y se viene una tercera en camino, de esta especie de Harry Potter con Furia de Titanes. Y encima el director Chris Columbus es el mismo que dirigio "Harry Potter y La Piedra Filosofal" y "Harry Potter y La Cámara Secreta", así que algun parecido tiene que tener, no? ;)
 
Volver