Percy Jackson Sea of Monsters (2013) 1080p BDRip Dual Latino-Inglés [Subt. Esp] (Fantástico. Aventura)

Maestro Revolver

Administrador
Registro
9 Ago 2012
Mensajes
3.157
Reacciones (ptje)
55.041


Percy-Jackson-Sea-of-Monsters-1080p.jpg




FichaTecnica.jpg


TÍTULO ORIGINAL: Percy Jackson: Sea of Monsters
AÑO: 2013
DURACIÓN: 106 min.
PAÍS: USA
DIRECTOR: Thor Freudenthal
GUIÓN: Scott Alexander, Larry Karaszewski, Marc Guggenheim (Novela: Rick Riordan)
REPARTO: Logan Lerman, Sean Bean, Nathan Fillion, Alexandra Daddario, Daniel Cudmore, Stanley Tucci, Jake Abel, Missi Pyle, Brandon T. Jackson, Anthony Head, Leven Rambin, Robert Maillet, Douglas Smith, Derek Mears, Yvette Nicole Brown, Grey Damon, Mary Birdsong
PRODUCTORA: Fox 2000 Pictures / Trireme Productions
GÉNERO: Fantástico. Aventuras | Mitología. Secuela
imdb-logo.png
: http://www.imdb.com/title/tt1854564/




Sinopsis.jpg


Para salvar su mundo, Percy y sus amigos deben encontrar el Vellocino de Oro. Vivirán así una auténtica odisea surcando las aguas del Mar de los Monstruos (que los hombres llaman el Triángulo de las Bermudas), pues tendrán que enfrentarse a terribles criaturas, a un ejército de zombies y al mismísimo Demonio.




Trailer.jpg






Capturas.jpg


1.jpg


2.jpg


3.jpg


4.jpg


5.jpg


6.jpg


La pelicula NO tiene ninguna marca... solo colocamos el nombre de esta web en las capturas




MediaInfo.jpg


Código:
General
Format                                   : Matroska
Format version                           : Version 2
File size                                : 8.43 GiB
Duration                                 : 1h 46mn
Overall bit rate mode                    : Variable
Overall bit rate                         : 11.3 Mbps
Movie name                               : www.club-hd.com
Encoded date                             : UTC 2013-11-13 00:38:26
Writing application                      : mkvmerge v5.7.0 ('The Whirlwind') built on Jul  8 2012 20:08:51
Writing library                          : libebml v1.2.3 + libmatroska v1.3.0

Video
ID                                       : 1
Format                                   : AVC
Format/Info                              : Advanced Video Codec
Format profile                           : [email protected]
Format settings, CABAC                   : Yes
Format settings, ReFrames                : 4 frames
Codec ID                                 : V_MPEG4/ISO/AVC
Duration                                 : 1h 46mn
Bit rate mode                            : Variable
Bit rate                                 : 8 733 Kbps
Maximum bit rate                         : 62.5 Mbps
Width                                    : 1 912 pixels
Height                                   : 808 pixels
Display aspect ratio                     : 2.35:1
Frame rate mode                          : Constant
Frame rate                               : 23.976 fps
Color space                              : YUV
Chroma subsampling                       : 4:2:0
Bit depth                                : 8 bits
Scan type                                : Progressive
Bits/(Pixel*Frame)                       : 0.236
Stream size                              : 6.33 GiB (75%)
Title                                    : www.club-hd.com
Writing library                          : x264 core 140 r2377 1ca7bb9
Language                                 : English
Default                                  : Yes
Forced                                   : No

Audio #1
ID                                       : 2
Format                                   : AC-3
Format/Info                              : Audio Coding 3
Mode extension                           : CM (complete main)
Format settings, Endianness              : Big
Codec ID                                 : A_AC3
Duration                                 : 1h 46mn
Bit rate mode                            : Constant
Bit rate                                 : 448 Kbps
Channel(s)                               : 6 channels
Channel positions                        : Front: L C R, Side: L R, LFE
Sampling rate                            : 48.0 KHz
Bit depth                                : 16 bits
Compression mode                         : Lossy
Delay relative to video                  : 300ms
Stream size                              : 341 MiB (4%)
Title                                    : www.club-hd.com  >>  Latino AC3 5.1
Language                                 : Spanish
Default                                  : Yes
Forced                                   : No

Audio #2
ID                                       : 3
Format                                   : AC-3
Format/Info                              : Audio Coding 3
Mode extension                           : CM (complete main)
Format settings, Endianness              : Big
Codec ID                                 : A_AC3
Duration                                 : 1h 46mn
Bit rate mode                            : Constant
Bit rate                                 : 640 Kbps
Channel(s)                               : 6 channels
Channel positions                        : Front: L C R, Side: L R, LFE
Sampling rate                            : 48.0 KHz
Bit depth                                : 16 bits
Compression mode                         : Lossy
Stream size                              : 488 MiB (6%)
Title                                    : www.club-hd.com  >>  Inglés AC3 5.1
Language                                 : English
Default                                  : No
Forced                                   : No

Audio #3
ID                                       : 4
Format                                   : DTS
Format/Info                              : Digital Theater Systems
Mode                                     : 16
Format settings, Endianness              : Big
Codec ID                                 : A_DTS
Duration                                 : 1h 46mn
Bit rate mode                            : Constant
Bit rate                                 : 1 510 Kbps
Channel(s)                               : 6 channels
Channel positions                        : Front: L C R, Side: L R, LFE
Sampling rate                            : 48.0 KHz
Bit depth                                : 24 bits
Compression mode                         : Lossy
Stream size                              : 1.12 GiB (13%)
Title                                    : www.club-hd.com  >>  Inglés DTS 5.1
Language                                 : English
Default                                  : No
Forced                                   : No

Text
ID                                       : 5
Format                                   : UTF-8
Codec ID                                 : S_TEXT/UTF8
Codec ID/Info                            : UTF-8 Plain Text
Language                                 : Spanish
Default                                  : No
Forced                                   : No

Menu
00:00:00.000                             : en:1
00:04:06.000                             : en:2
00:06:44.000                             : en:3
00:09:32.000                             : en:4
00:13:54.000                             : en:5
00:19:18.000                             : en:6
00:20:49.000                             : en:7
00:22:11.000                             : en:8
00:25:30.000                             : en:9
00:28:24.000                             : en:10
00:30:28.000                             : en:11
00:33:21.000                             : en:12
00:37:02.000                             : en:13
00:39:50.000                             : en:14
00:45:17.000                             : en:15
00:48:51.000                             : en:16
00:52:44.000                             : en:17
00:56:36.000                             : en:18
01:00:21.000                             : en:19
01:03:37.000                             : en:20
01:05:42.000                             : en:21
01:10:43.000                             : en:22
01:12:33.000                             : en:23
01:16:54.000                             : en:24
01:19:40.000                             : en:25
01:23:03.000                             : en:26
01:25:49.000                             : en:27
01:29:55.000                             : en:28
01:32:48.000                             : en:29
01:34:26.000                             : en:30
01:36:09.000                             : en:31
01:37:39.000                             : en:32




Descarga.jpg



MEGA.jpg

Tenemos TODO el material de Club-HD disponible por Mega, enlaces 100% activos y online hasta la fecha

Llévate tus cuentas Mega PRO III gratis con tu membresía VIP!
Todos los posts vivos con links de Mega.
Todo el material de Club-HD desbloqueado y sin publicidad.

Obtén más información sobre nuestras Membresías VIP


1FICHIER-VIP.png


Tenemos TODO el material de Club-HD disponible por Mega, enlaces 100% activos y online hasta la fecha

Llévate tus cuentas Mega PRO III gratis con tu membresía VIP!
Todos los posts vivos con links de Mega.
Todo el material de Club-HD desbloqueado y sin publicidad.

Obtén más información sobre nuestras Membresías VIP


UPLOADED_BANNER.png

Para ver este contenido oculto, debes dar click en el botón"Like", o cualquiera de las otras reacciones:

Me Gusta Me Gusta, Me Encanta Me Encanta, Jaja Jaja, Wow Wow, Triste Triste, Molesto Molesto

OPENLOAD.png

Para ver este contenido oculto, debes dar click en el botón"Like", o cualquiera de las otras reacciones:

Me Gusta Me Gusta, Me Encanta Me Encanta, Jaja Jaja, Wow Wow, Triste Triste, Molesto Molesto
 
Última edición por un moderador:
Buenísimo y rapidísimo!!
Espero que no la caguen porque la primera estuvo bastante buena!!Desc_g_
Chas Gracias.
 
Volver