Percy Jackson Sea of Monsters (2013) 3D H-SBS 1080p BDRip Dual Latino-Inglés [Subt. Esp] (Fantástico. Aventura)

Maestro Revolver

Miembro del Staff
Administrador
Registro
9 Ago 2012
Mensajes
3.157








TÍTULO ORIGINAL: Percy Jackson: Sea of Monsters
AÑO: 2013
DURACIÓN: 106 min.
PAÍS: USA
DIRECTOR: Thor Freudenthal
GUIÓN: Scott Alexander, Larry Karaszewski, Marc Guggenheim (Novela: Rick Riordan)
REPARTO: Logan Lerman, Sean Bean, Nathan Fillion, Alexandra Daddario, Daniel Cudmore, Stanley Tucci, Jake Abel, Missi Pyle, Brandon T. Jackson, Anthony Head, Leven Rambin, Robert Maillet, Douglas Smith, Derek Mears, Yvette Nicole Brown, Grey Damon, Mary Birdsong
PRODUCTORA: Fox 2000 Pictures / Trireme Productions
GÉNERO: Fantástico. Aventuras | Mitología. Secuela
: http://www.imdb.com/title/tt1854564/






Para salvar su mundo, Percy y sus amigos deben encontrar el Vellocino de Oro. Vivirán así una auténtica odisea surcando las aguas del Mar de los Monstruos (que los hombres llaman el Triángulo de las Bermudas), pues tendrán que enfrentarse a terribles criaturas, a un ejército de zombies y al mismísimo Demonio.
























La pelicula NO tiene ninguna marca... solo colocamos el nombre de esta web en las capturas






Código:
General
Format                                   : Matroska
Format version                           : Version 3 / Version 2
File size                                : 10.3 GiB
Duration                                 : 1h 46mn
Overall bit rate                         : 13.9 Mbps
Movie name                               : www.club-hd.com
Encoded date                             : UTC 2013-11-29 02:28:53
Writing application                      : mkvmerge v5.7.0 ('The Whirlwind') built on Jul  8 2012 20:08:51
Writing library                          : libebml v1.2.3 + libmatroska v1.3.0

Video
ID                                       : 1
Format                                   : AVC
Format/Info                              : Advanced Video Codec
Format profile                           : High@L4.1
MultiView_Count                          : 2
MultiView_Layout                         : Side by Side (left eye first)
Format settings, CABAC                   : Yes
Format settings, ReFrames                : 4 frames
Codec ID                                 : V_MPEG4/ISO/AVC
Duration                                 : 1h 46mn
Bit rate                                 : 11.0 Mbps
Width                                    : 1 920 pixels
Height                                   : 1 080 pixels
Display aspect ratio                     : 16:9
Frame rate mode                          : Constant
Frame rate                               : 23.976 fps
Color space                              : YUV
Chroma subsampling                       : 4:2:0
Bit depth                                : 8 bits
Scan type                                : Progressive
Bits/(Pixel*Frame)                       : 0.222
Stream size                              : 8.18 GiB (79%)
Title                                    : www.club-hd.com
Language                                 : English
Default                                  : Yes
Forced                                   : No

Audio #1
ID                                       : 2
Format                                   : AC-3
Format/Info                              : Audio Coding 3
Mode extension                           : CM (complete main)
Format settings, Endianness              : Big
Codec ID                                 : A_AC3
Duration                                 : 1h 46mn
Bit rate mode                            : Constant
Bit rate                                 : 448 Kbps
Channel(s)                               : 6 channels
Channel positions                        : Front: L C R, Side: L R, LFE
Sampling rate                            : 48.0 KHz
Bit depth                                : 16 bits
Compression mode                         : Lossy
Delay relative to video                  : 1s 0ms
Stream size                              : 340 MiB (3%)
Title                                    : AC3 5.1
Language                                 : Spanish
Default                                  : Yes
Forced                                   : No

Audio #2
ID                                       : 3
Format                                   : AC-3
Format/Info                              : Audio Coding 3
Mode extension                           : CM (complete main)
Format settings, Endianness              : Big
Codec ID                                 : A_AC3
Duration                                 : 1h 46mn
Bit rate mode                            : Constant
Bit rate                                 : 640 Kbps
Channel(s)                               : 6 channels
Channel positions                        : Front: L C R, Side: L R, LFE
Sampling rate                            : 48.0 KHz
Bit depth                                : 16 bits
Compression mode                         : Lossy
Stream size                              : 486 MiB (5%)
Title                                    : AC3 5.1
Language                                 : English
Default                                  : No
Forced                                   : No

Audio #3
ID                                       : 4
Format                                   : DTS
Format/Info                              : Digital Theater Systems
Format profile                           : ES
Mode                                     : 16
Format settings, Endianness              : Big
Codec ID                                 : A_DTS
Duration                                 : 1h 46mn
Bit rate mode                            : Constant
Bit rate                                 : 1 509 Kbps
Channel(s)                               : 6 channels
Channel positions                        : Front: L C R, Side: L R, LFE
Sampling rate                            : 48.0 KHz
Bit depth                                : 24 bits
Compression mode                         : Lossy
Stream size                              : 1.12 GiB (11%)
Title                                    : DTS 5.1
Language                                 : English
Default                                  : No
Forced                                   : No

Text
ID                                       : 5
Format                                   : VobSub
Muxing mode                              : zlib
Codec ID                                 : S_VOBSUB
Codec ID/Info                            : The same subtitle format used on DVDs
Language                                 : Spanish
Default                                  : No
Forced                                   : No

Menu
00:00:00.000                             : en:00:00:00.000
00:04:06.455                             : en:00:04:06.455
00:06:44.070                             : en:00:06:44.070
00:09:32.697                             : en:00:09:32.697
00:13:54.125                             : en:00:13:54.125
00:19:18.157                             : en:00:19:18.157
00:20:49.039                             : en:00:20:49.039
00:22:11.497                             : en:00:22:11.497
00:25:31.530                             : en:00:25:31.530
00:28:23.827                             : en:00:28:23.827
00:30:28.535                             : en:00:30:28.535
00:33:20.999                             : en:00:33:20.999
00:37:02.262                             : en:00:37:02.262
00:39:50.597                             : en:00:39:50.597
00:45:17.381                             : en:00:45:17.381
00:48:51.178                             : en:00:48:51.178
00:52:43.952                             : en:00:52:43.952
00:56:36.101                             : en:00:56:36.101
01:00:20.867                             : en:01:00:20.867
01:03:36.896                             : en:01:03:36.896
01:05:41.688                             : en:01:05:41.688
01:10:42.697                             : en:01:10:42.697
01:12:33.182                             : en:01:12:33.182
01:16:53.818                             : en:01:16:53.818
01:19:40.442                             : en:01:19:40.442
01:23:02.769                             : en:01:23:02.769
01:25:46.808                             : en:01:25:46.808
01:29:55.265                             : en:01:29:55.265
01:32:48.313                             : en:01:32:48.313
01:34:26.244                             : en:01:34:26.244
01:36:08.972                             : en:01:36:08.972
01:37:40.188                             : en:01:37:40.188








Enlaces de Mega y Google Drive solo disponibles para Miembros VIP

Compra tu Membresía VIP y apoya a Club-HD!

ATENCIÓN! Tenemos TODO el material de Club-HD disponible por Mega y Google Drive, enlaces 100% activos y online hasta la fecha

Llévate tus cuentas Mega PRO III gratis con tu membresía VIP!
Todos los posts vivos con links de Mega y Google Drive.
Todo el material de Club-HD desbloqueado y sin publicidad.

Click Aquí para más información.



Para ver este contenido oculto, debes dar click en una de las siguientes reacciones : Like Like, Love Love, Haha Haha, Wow Wow, Sad Sad, Angry Angry
 
Última edición por un moderador:

Usuarios Que Están Viendo Este Tema (Total: 1, Miembros: 0, Invitados: 1)

Quién Leyó Este Tema (Total Miembros: 3)

Arriba