Peter Pan (1953) 720p BDRip Audio Latino (Animación)

Maestro Revolver

Well-known member
Miembro del Staff
Administrador
Registro
9 Ago 2012
Mensajes
3.567








TÍTULO ORIGINAL: Peter Pan
AÑO: 1953
DURACIÓN: 77 min.
PAÍS: USA
DIRECTOR: Clyde Geronimi, Hamilton Luske, Wilfred Jackson
GUIÓN: Erdman Penner, Joe Rinaldi, Ralph Wright (Historia: J. M. Barrie)
REPARTO: Animation
PRODUCTORA: Walt Disney
GÉNERO: Animación. Fantástico. Aventuras. Infantil | Piratas. Cuentos
: http://www.imdb.com/title/tt0046183/


Premios: 1953: Festival de Cannes: Nominada a la Palma de Oro (mejor película)






Uno de los grandes clásicos de la factoría Walt Disney, que relata las aventuras en el País de Nunca Jamás de Peter Pan, su compañera Campanilla, su amiga Wendy y los Niños Perdidos, en su lucha contra el malvado Capitán Garfio.
























La pelicula NO tiene ninguna marca... solo colocamos el nombre de esta web en las capturas






Código:
General
Format                                   : Matroska
Format version                           : Version 2
File size                                : 2.08 GiB
Duration                                 : 1h 16mn
Overall bit rate                         : 3 872 Kbps
Movie name                               : www.club-hd.com
Encoded date                             : UTC 2013-07-19 23:06:24
Writing application                      : mkvmerge v5.7.0 ('The Whirlwind') built on Jul  8 2012 20:08:51
Writing library                          : libebml v1.2.3 + libmatroska v1.3.0

Video
ID                                       : 1
Format                                   : AVC
Format/Info                              : Advanced Video Codec
Format profile                           : High@L4.1
Format settings, CABAC                   : Yes
Format settings, ReFrames                : 5 frames
Codec ID                                 : V_MPEG4/ISO/AVC
Duration                                 : 1h 16mn
Bit rate                                 : 3 422 Kbps
Width                                    : 960 pixels
Height                                   : 720 pixels
Display aspect ratio                     : 4:3
Frame rate mode                          : Constant
Frame rate                               : 23.976 fps
Color space                              : YUV
Chroma subsampling                       : 4:2:0
Bit depth                                : 8 bits
Scan type                                : Progressive
Bits/(Pixel*Frame)                       : 0.206
Stream size                              : 1.79 GiB (86%)
Title                                    : www.club-hd.com
Writing library                          : x264 core 128 r2216 198a7ea
Language                                 : English
Default                                  : Yes
Forced                                   : No

Audio
ID                                       : 2
Format                                   : AC-3
Format/Info                              : Audio Coding 3
Mode extension                           : CM (complete main)
Format settings, Endianness              : Big
Codec ID                                 : A_AC3
Duration                                 : 1h 16mn
Bit rate mode                            : Constant
Bit rate                                 : 448 Kbps
Channel(s)                               : 6 channels
Channel positions                        : Front: L C R, Side: L R, LFE
Sampling rate                            : 48.0 KHz
Bit depth                                : 16 bits
Compression mode                         : Lossy
Stream size                              : 246 MiB (12%)
Title                                    : www.club-hd.com
Language                                 : Spanish
Default                                  : Yes
Forced                                   : No

Menu
00:00:00.000                             : en:00:00:00.000
00:01:49.526                             : en:00:01:49.526
00:03:46.351                             : en:00:03:46.351
00:07:40.877                             : en:00:07:40.877
00:10:20.453                             : en:00:10:20.453
00:12:22.784                             : en:00:12:22.784
00:15:09.700                             : en:00:15:09.700
00:16:13.639                             : en:00:16:13.639
00:18:06.043                             : en:00:18:06.043
00:20:28.602                             : en:00:20:28.602
00:25:18.058                             : en:00:25:18.058
00:27:38.490                             : en:00:27:38.490
00:31:48.824                             : en:00:31:48.824
00:33:59.704                             : en:00:33:59.704
00:36:31.398                             : en:00:36:31.398
00:38:19.672                             : en:00:38:19.672
00:42:30.047                             : en:00:42:30.047
00:43:46.082                             : en:00:43:46.082
00:45:51.540                             : en:00:45:51.540
00:46:59.608                             : en:00:46:59.608
00:50:08.589                             : en:00:50:08.589
00:52:52.628                             : en:00:52:52.628
00:56:25.674                             : en:00:56:25.674
00:58:28.880                             : en:00:58:28.880
01:01:59.299                             : en:01:01:59.299
01:04:30.492                             : en:01:04:30.492
01:06:21.728                             : en:01:06:21.728
01:07:40.431                             : en:01:07:40.431
01:10:13.668                             : en:01:10:13.668
01:12:47.405                             : en:01:12:47.405
01:14:25.211                             : en:01:14:25.211








Enlaces de Mega y Google Drive solo disponibles para Miembros VIP

Compra tu Membresía VIP y apoya a Club-HD!

ATENCIÓN! Tenemos TODO el material de Club-HD disponible por Mega y Google Drive, enlaces 100% activos y online hasta la fecha

Llévate tus cuentas Mega PRO III gratis con tu membresía VIP!
Todos los posts vivos con links de Mega y Google Drive.
Todo el material de Club-HD desbloqueado y sin publicidad.

Click Aquí para más información.


Para ver este contenido oculto, debes dar click en una de las siguientes reacciones : Like Like, Love Love, Haha Haha, Wow Wow, Sad Sad, Angry Angry



 
Última edición por un moderador:

cripp

Well-known member
Registro
27 Ago 2012
Mensajes
10.608
Una buena película para los pequeños, y para recordar, se agradece el aporte, a descargar...
 

Usuarios Que Están Viendo Este Tema (Total: 1, Miembros: 0, Invitados: 1)

Quién Leyó Este Tema (Total Miembros: 3)

Arriba