Peter Pan: Return to NeverLand (2002) 720p BDRip Audio Latino (Animación)

Maestro Revolver

Administrador
Registro
9 Ago 2012
Mensajes
3.157
Reacciones (ptje)
54.886


Peter-pan-2.jpg




FichaTecnica.jpg


TÍTULO ORIGINAL: Peter Pan: Return to NeverLand
AÑO: 2002
DURACIÓN: 72 min.
PAÍS: USA
DIRECTOR: Robin Budd, Donovan Cook
GUIÓN: Temple Matthews
REPARTO: Animation
PRODUCTORA: DisneyToon Studios / Buena Vista
GÉNERO: Animación. Fantástico. Musical. Infantil | Piratas. Cuentos. II Guerra Mundial. Secuela
imdb-logo.png
: http://www.imdb.com/title/tt0280030/




Sinopsis.jpg


Peter Pan sigue siendo el líder de los Niños Perdidos y librando batallas con el malvado Capitán Garfio, con la ayuda de Campanilla. Pero aunque Peter Pan nunca creció todo a su alrededor ha cambiado: Wendy es ahora madre de una niña llamada Jane. Jane ya no cree en cuentos de hadas, y ¡mucho menos en volar!. Pero cuando el Capitán Garfio la secuestra y la lleva al país de Nunca Jamás, Peter Pan conseguirá que su imaginación vuele otra vez.




Trailer.jpg






Capturas.jpg


1.jpg


2.jpg


3.jpg


4.jpg


5.jpg


6.jpg


La pelicula NO tiene ninguna marca... solo colocamos el nombre de esta web en las capturas




MediaInfo.jpg


Código:
General
Format                                   : Matroska
Format version                           : Version 2
File size                                : 2.08 GiB
Duration                                 : 1h 12mn
Overall bit rate                         : 4 096 Kbps
Movie name                               : www.club-hd.com
Encoded date                             : UTC 2013-07-19 23:33:35
Writing application                      : mkvmerge v5.7.0 ('The Whirlwind') built on Jul  8 2012 20:08:51
Writing library                          : libebml v1.2.3 + libmatroska v1.3.0

Video
ID                                       : 1
Format                                   : AVC
Format/Info                              : Advanced Video Codec
Format profile                           : [email protected]
Format settings, CABAC                   : Yes
Format settings, ReFrames                : 5 frames
Codec ID                                 : V_MPEG4/ISO/AVC
Duration                                 : 1h 12mn
Bit rate                                 : 3 710 Kbps
Width                                    : 1 216 pixels
Height                                   : 720 pixels
Display aspect ratio                     : 1.689
Frame rate mode                          : Constant
Frame rate                               : 23.976 fps
Color space                              : YUV
Chroma subsampling                       : 4:2:0
Bit depth                                : 8 bits
Scan type                                : Progressive
Bits/(Pixel*Frame)                       : 0.177
Stream size                              : 1.84 GiB (89%)
Title                                    : www.club-hd.com
Writing library                          : x264 core 128 r2216 198a7ea
Language                                 : English
Default                                  : Yes
Forced                                   : No

Audio
ID                                       : 2
Format                                   : AC-3
Format/Info                              : Audio Coding 3
Mode extension                           : CM (complete main)
Format settings, Endianness              : Big
Codec ID                                 : A_AC3
Duration                                 : 1h 12mn
Bit rate mode                            : Constant
Bit rate                                 : 384 Kbps
Channel(s)                               : 6 channels
Channel positions                        : Front: L C R, Side: L R, LFE
Sampling rate                            : 48.0 KHz
Bit depth                                : 16 bits
Compression mode                         : Lossy
Delay relative to video                  : 24ms
Stream size                              : 199 MiB (9%)
Title                                    : www.club-hd.com
Language                                 : Spanish
Default                                  : Yes
Forced                                   : No

Menu
00:00:00.000                             : en:00:00:00.000
00:03:12.275                             : en:00:03:12.275
00:09:41.080                             : en:00:09:41.080
00:12:26.329                             : en:00:12:26.329
00:14:39.378                             : en:00:14:39.378
00:17:47.191                             : en:00:17:47.191
00:22:40.317                             : en:00:22:40.317
00:23:25.696                             : en:00:23:25.696
00:27:40.909                             : en:00:27:40.909
00:30:16.898                             : en:00:30:16.898
00:33:26.963                             : en:00:33:26.963
00:35:45.894                             : en:00:35:45.894
00:37:25.452                             : en:00:37:25.452
00:39:00.547                             : en:00:39:00.547
00:40:17.874                             : en:00:40:17.874
00:43:46.374                             : en:00:43:46.374
00:44:29.417                             : en:00:44:29.417
00:46:53.144                             : en:00:46:53.144
00:48:57.143                             : en:00:48:57.143
00:50:42.414                             : en:00:50:42.414
00:55:59.731                             : en:00:55:59.731
00:57:26.693                             : en:00:57:26.693
00:59:14.509                             : en:00:59:14.509
01:01:24.639                             : en:01:01:24.639
01:02:42.008                             : en:01:02:42.008
01:04:58.269                             : en:01:04:58.269




Descarga.jpg



MEGA.jpg

Tenemos TODO el material de Club-HD disponible por Mega, enlaces 100% activos y online hasta la fecha

Llévate tus cuentas Mega PRO III gratis con tu membresía VIP!
Todos los posts vivos con links de Mega.
Todo el material de Club-HD desbloqueado y sin publicidad.

Obtén más información sobre nuestras Membresías VIP


UPLOADED_BANNER.png

Para ver este contenido oculto, debes dar click en el botón"Like", o cualquiera de las otras reacciones:

Me Gusta Me Gusta, Me Encanta Me Encanta, Jaja Jaja, Wow Wow, Triste Triste, Molesto Molesto



 
Última edición por un moderador:
Otro buen aporte para los pequeños, se agradece, a descargar...
 
Definitivamente hay que tenerla ;) Son dibujos que enseñan cosas importantes a los peques :D Muchas gracias Revolver Tb_up3 Saludos bye
 
Volver