Phil Collins - Live at Montreux (2004) 720p [AC3 5.1] [DTS] (Concierto)

Maestro Revolver

Well-known member
Miembro del Staff
Administrador
Registro
9 Ago 2012
Mensajes
3.569
Reacciones
59.346
Puntos
113

Reputation:









Interprete: Phil Collins
Artista: Phil Collins
Titulo: Phil Collins - Live at Montreux
Año: 2004
Genero: Pop, Rock, Soft Rock




El 26 de marzo de 2012, Eagle Rock Entertainment, Phil Collins lanzó Live at Montreux 2004 en Blu-ray. Esto marca la primera vez que Phil Collins se puede experimentar en alta definición de la realización de todos y cada uno de sus grandes éxitos en vivo en concierto.
El jugador de 25 canciones, 231 minutos de duración cuenta con gran éxito el célebre baterista convertido en cantante de cantar los éxitos de su carrera en solitario larga y dilatada historia. "In The Air Tonight", "Sussudio", "Dos Corazones", "Take Me Home", y muchos otros son un lugar destacado en la exhibición en DTS-HD Master Audio, Dolby Digital 5.1 y LPCM estéreo y de alta definición de la Blu-Ray visual.
Como beneficio adicional, 13 canciones de su apariencia de Montreux 1996 (grabado en definición estándar) se incluyen, a cargo de la banda, Phil Collins Big. El material de la banda rara vez se ve grande, con una aparición especial de Tony Bennett, completa el Live at Montreux 2004 disco, demostrando la diversidad de géneros musicales que Phil Collins se ha perfeccionado
[GOOGLE TRADUCTOR]



Track List:

01 Drums, Drums and More Drums
02 Something Happened On the Way to Heaven
03 Against All Odds
04 Don't Lose My Number
05 You'll Be in My Heart
06 One More Night
07 Can't Stop Lovin' You
08 Hang in Long Enough
09 True Colors
10 Come With Me
11 Groovy Kind of Love
12 I Missed Again
13 Another Day in Paradise
14 No Way Out
15 Separate Lives
16 In the Air Tonight
17 Dance Into the Light
18 You Can't Hurry Love
19 Two Hearts
20 Wear My Hat
21 Easy Lover
22 Sussudio
23 It's Not Too Late
24 Take Me Home

Bonus Features:
01 Two Hearts
02 That's All
03 In the Air Tonight
04 Invisible Touch
05 West Side
06 Against All Odds
07 Hand in Hand
08 There'll Be Some Changes Made (featuring Tony Bennett)
09 Milestones
10 The Los Endos Suite
11 Always
12 Do Nothing 'Til You Hear From Me
13 Sussudio






























Código:
Format                                   : Matroska
Format version                           : Version 2
File size                                : 7.11 GiB
Duration                                 : 2h 17mn
Overall bit rate                         : 7 421 Kbps
Movie name                               : www.club-hd.com
Encoded date                             : UTC 2012-06-21 00:29:35
Writing application                      : mkvmerge v5.2.1 ('A Far Off Place') built on Jan  2 2012 23:21:10
Writing library                          : libebml v1.2.3 + libmatroska v1.3.0

Video
ID                                       : 1
Format                                   : AVC
Format/Info                              : Advanced Video Codec
Format profile                           : High@L4.1
Format settings, CABAC                   : Yes
Format settings, ReFrames                : 8 frames
Muxing mode                              : Header stripping
Codec ID                                 : V_MPEG4/ISO/AVC
Duration                                 : 2h 17mn
Bit rate                                 : 5 274 Kbps
Width                                    : 1 276 pixels
Height                                   : 720 pixels
Display aspect ratio                     : 16:9
Frame rate                               : 29.970 fps
Color space                              : YUV
Chroma subsampling                       : 4:2:0
Bit depth                                : 8 bits
Scan type                                : Progressive
Bits/(Pixel*Frame)                       : 0.192
Stream size                              : 4.91 GiB (69%)
Title                                    : www.club-hd.com
Writing library                          : x264 core 122 r2184 5c85e0a
Language                                 : English
Default                                  : Yes
Forced                                   : No

Audio #1
ID                                       : 2
Format                                   : AC-3
Format/Info                              : Audio Coding 3
Mode extension                           : CM (complete main)
Format settings, Endianness              : Big
Muxing mode                              : Header stripping
Codec ID                                 : A_AC3
Duration                                 : 2h 17mn
Bit rate mode                            : Constant
Bit rate                                 : 640 Kbps
Channel(s)                               : 6 channels
Channel positions                        : Front: L C R, Side: L R, LFE
Sampling rate                            : 48.0 KHz
Bit depth                                : 16 bits
Compression mode                         : Lossy
Stream size                              : 628 MiB (9%)
Title                                    : www.club-hd.com  >>  AC3 5.1
Language                                 : English
Default                                  : Yes
Forced                                   : No

Audio #2
ID                                       : 3
Format                                   : DTS
Format/Info                              : Digital Theater Systems
Muxing mode                              : Header stripping
Codec ID                                 : A_DTS
Duration                                 : 2h 17mn
Bit rate mode                            : Constant
Bit rate                                 : 1 510 Kbps
Channel(s)                               : 6 channels
Channel positions                        : Front: L C R, Side: L R, LFE
Sampling rate                            : 48.0 KHz
Bit depth                                : 16 bits
Compression mode                         : Lossy
Stream size                              : 1.45 GiB (20%)
Title                                    : www.club-hd.com  >>  DTS 5.1
Language                                 : English
Default                                  : No
Forced                                   : No










Enlaces de Mega y Fireload solo disponibles para Miembros VIP

Compra tu Membresía VIP y apoya a Club-HD!

ATENCIÓN! Tenemos TODO el material de Club-HD disponible por Mega y Fireload, enlaces 100% activos y online hasta la fecha

Llévate tus cuentas Mega PRO II gratis con tu membresía VIP!
Todos los posts vivos con links de Mega y Fireload.
Todo el material de Club-HD desbloqueado y sin publicidad.

Click Aquí para más información.




Enlaces de Mega y Fireload solo disponibles para Miembros VIP

Compra tu Membresía VIP y apoya a Club-HD!

ATENCIÓN! Tenemos TODO el material de Club-HD disponible por Mega y Fireload, enlaces 100% activos y online hasta la fecha

Llévate tus cuentas Mega PRO II gratis con tu membresía VIP!
Todos los posts vivos con links de Mega y Fireload.
Todo el material de Club-HD desbloqueado y sin publicidad.

Click Aquí para más información.


Para ver este contenido oculto, debes dar click en una de las siguientes reacciones : Like Like, Love Love, Haha Haha, Wow Wow, Sad Sad, Angry Angry
 
Última edición:

juan_fornaris

New member
Registro
28 Ago 2012
Mensajes
144
Reacciones
57
Puntos
0

Reputation:

Me fascina “Another Day in Paradise” por la gran connotación de su mensaje.
Muchas gracias!
 

Usuarios Que Están Viendo Este Tema (Total: 1, Miembros: 0, Invitados: 1)

Arriba