Philadelphia (1993) 720p BDRip Dual Latino-Inglés [Subt. Esp] (Drama)

Maestro Revolver

Administrador
Registro
9 Ago 2012
Mensajes
3.157
Reacciones (ptje)
55.161


Philadelphia.jpg




FichaTecnica.jpg


TÍTULO ORIGINAL: Philadelphia
AÑO: 1993
DURACIÓN: 119 min.
PAÍS: USA
DIRECTOR: Jonathan Demme
GUIÓN: Ron Nyswaner
REPARTO: Tom Hanks, Denzel Washington, Antonio Banderas, Joanne Woodward, Jason Robards, Mary Steenburgen, Ron Vawter, Robert Ridgely, Charles Napier, Roberta Maxwell, Lisa Summerour, Roger Corman, Bradley Whitford, Anna Deavere Smith
PRODUCTORA: TriStar Pictures pr. una prod. Clinica Estetico Productions
GÉNERO: Drama | Enfermedad. SIDA. Homosexualidad
imdb-logo.png
: http://www.imdb.com/title/tt0107818/

Premios: 1993: 2 Oscars: Mejor actor (Tom Hanks), canción original. 5 nominaciones
1993: 2 Globos de Oro: Mejor actor drama (Hanks), canción original. 3 nominaciones
1993: Nominada Premios BAFTA: Mejor guión original
1994: Festival de Berlín: Oso de Plata - Mejor actor (Tom Hanks)





Sinopsis.jpg


Andrew Beckett, un joven y prometedor abogado de Philadelphia, es despedido del prestigioso bufete en el que trabaja cuando sus jefes se enteran de que ha contraído el sida. Decide entonces demandar a la empresa por despido improcedente, pero en un principio ningún abogado acepta defender su caso.




Trailer.jpg






Capturas.jpg


1.jpg


2.jpg


3.jpg


4.jpg


5.jpg


La pelicula NO tiene ninguna marca... solo colocamos el nombre de esta web en las capturas




MediaInfo.jpg


Código:
General
Format                                   : Matroska
Format version                           : Version 2
File size                                : 3.17 GiB
Duration                                 : 2h 5mn
Overall bit rate                         : 3 617 Kbps
Movie name                               : www.club-hd.com
Encoded date                             : UTC 2013-10-27 14:35:40
Writing application                      : mkvmerge v5.7.0 ('The Whirlwind') built on Jul  8 2012 20:08:51
Writing library                          : libebml v1.2.3 + libmatroska v1.3.0

Video
ID                                       : 1
Format                                   : AVC
Format/Info                              : Advanced Video Codec
Format profile                           : [email protected]
Format settings, CABAC                   : Yes
Format settings, ReFrames                : 9 frames
Codec ID                                 : V_MPEG4/ISO/AVC
Duration                                 : 2h 5mn
Bit rate                                 : 2 785 Kbps
Width                                    : 1 280 pixels
Height                                   : 690 pixels
Display aspect ratio                     : 1.85:1
Frame rate mode                          : Constant
Frame rate                               : 23.976 fps
Color space                              : YUV
Chroma subsampling                       : 4:2:0
Bit depth                                : 8 bits
Scan type                                : Progressive
Bits/(Pixel*Frame)                       : 0.132
Stream size                              : 2.38 GiB (75%)
Title                                    : www.club-hd.com
Writing library                          : x264 core 130 r2273 b3065e6
Language                                 : English
Default                                  : Yes
Forced                                   : No

Audio #1
ID                                       : 2
Format                                   : AC-3
Format/Info                              : Audio Coding 3
Format profile                           : Dolby Digital
Mode extension                           : CM (complete main)
Format settings, Endianness              : Big
Codec ID                                 : A_AC3
Duration                                 : 2h 5mn
Bit rate mode                            : Constant
Bit rate                                 : 192 Kbps
Channel(s)                               : 2 channels
Channel positions                        : Front: L R
Sampling rate                            : 48.0 KHz
Bit depth                                : 16 bits
Compression mode                         : Lossy
Delay relative to video                  : 24ms
Stream size                              : 172 MiB (5%)
Title                                    : www.club-hd.com  >>  Latino
Language                                 : Spanish
Default                                  : Yes
Forced                                   : No

Audio #2
ID                                       : 3
Format                                   : AC-3
Format/Info                              : Audio Coding 3
Mode extension                           : CM (complete main)
Format settings, Endianness              : Big
Codec ID                                 : A_AC3
Duration                                 : 2h 5mn
Bit rate mode                            : Constant
Bit rate                                 : 640 Kbps
Channel(s)                               : 6 channels
Channel positions                        : Front: L C R, Side: L R, LFE
Sampling rate                            : 48.0 KHz
Bit depth                                : 16 bits
Compression mode                         : Lossy
Stream size                              : 574 MiB (18%)
Title                                    : www.club-hd.com  >>  Inglés
Language                                 : English
Default                                  : No
Forced                                   : No

Text
ID                                       : 4
Format                                   : UTF-8
Codec ID                                 : S_TEXT/UTF8
Codec ID/Info                            : UTF-8 Plain Text
Language                                 : Spanish
Default                                  : No
Forced                                   : No

Menu
00:00:00.000                             : en:Chapter 1
00:05:22.781                             : en:Chapter 2
00:08:26.297                             : en:Chapter 3
00:12:43.513                             : en:Chapter 4
00:15:20.461                             : en:Chapter 5
00:19:54.819                             : en:Chapter 6
00:29:53.000                             : en:Chapter 7
00:39:50.346                             : en:Chapter 8
00:46:05.846                             : en:Chapter 9
00:52:46.747                             : en:Chapter 10
01:01:07.080                             : en:Chapter 11
01:09:22.825                             : en:Chapter 12
01:24:18.053                             : en:Chapter 13
01:39:21.289                             : en:Chapter 14
01:43:59.775                             : en:Chapter 15
01:47:53.092                             : en:Chapter 16




Descarga.jpg



MEGA.jpg

Tenemos TODO el material de Club-HD disponible por Mega, enlaces 100% activos y online hasta la fecha

Llévate tus cuentas Mega PRO III gratis con tu membresía VIP!
Todos los posts vivos con links de Mega.
Todo el material de Club-HD desbloqueado y sin publicidad.

Obtén más información sobre nuestras Membresías VIP



UPLOADED_BANNER.png

Para ver este contenido oculto, debes dar click en el botón"Like", o cualquiera de las otras reacciones:

Me Gusta Me Gusta, Me Encanta Me Encanta, Jaja Jaja, Wow Wow, Triste Triste, Molesto Molesto

 
Última edición por un moderador:
Es mi obligación compartirlo y aunque muchos aquí sabemos que muy probablemente sí sea verdad, les recomiendo mucho a este par de tarados, que en realidad son muy buenos :D

 
Volver