Pink Floyd – The Dark Side Of The Moon (2011) (Immersion Edition) 1080p BDRip [Audio AC3, DTS 5.1] (Documental)

Maestro Revolver

Well-known member
Miembro del Staff
Administrador
Registro
9 Ago 2012
Mensajes
3.567








En un comunicado de piedra angular de la épica Why Pink Floyd? programa de reedición, The Dark Side of The Moon fue invitado a un impresionante remaster 2011, y publicado en las ediciones Discovery, experiencia e inmersión. Con nuevo cuño embalaje en toda la gama, la edición de coleccionista de Inmersión figuran una serie de audio excepcional, inédito y un suplente y el contenido de vídeo en resolución estándar y alta a través de CD / DVD y Blu-ray. The Dark Side Of The Moon fue el primer disco de conseguir este tratamiento reedición, seguido de Wish You Were Here y The Wall.



Track List:

[Audio 5.1 Surround Mix by James Guthrie (2003) (DTS)]

1. Speak To Me
2. Breathe
3. On The Run
4. Time
5. The Great Gig In The Sky
6. Money
7. Us And Them
8. Any Colour You Like
9. Brain Damage
10. Eclipse

[Audio Original Stereo Mix by Alan Parsons (1973) (.wv)]

11. Speak To Me
12. Breathe
13. On The Run
14. Time
15. The Great Gig In The Sky
16. Money
17. Us And Them
18. Any Colour You Like
19. Brain Damage
20. Eclipse

[audio visual]

1. Careful With That Axe, Eugene [Live In Brighton 1972]
2. Set The Controls For The Heart Of The Sun [Live In Brighton 1972]
3. The Dark Side Of The Moon (2003 documentary)

[audio visual - 5.1 Surround Mix]

4. British Tour 1974
5. French Tour 1974
6. North American 1975




























Código:
The Dark Side Of The Moon (2003 documentary)

General
Format                                   : Matroska
Format version                           : Version 2
File size                                : 1.87 GiB
Duration                                 : 25mn 32s
Overall bit rate                         : 10.5 Mbps
Encoded date                             : UTC 2013-05-26 18:51:33
Writing application                      : mkvmerge v5.7.0 ('The Whirlwind') built on Jul  8 2012 20:08:51
Writing library                          : libebml v1.2.3 + libmatroska v1.3.0

Video
ID                                       : 1
Format                                   : AVC
Format/Info                              : Advanced Video Codec
Format profile                           : High@L4.1
Format settings, CABAC                   : Yes
Format settings, ReFrames                : 3 frames
Codec ID                                 : V_MPEG4/ISO/AVC
Duration                                 : 25mn 32s
Bit rate                                 : 10 000 Kbps
Width                                    : 1 920 pixels
Height                                   : 1 056 pixels
Display aspect ratio                     : 1.85:1
Original display aspect ratio            : 1.85:1
Frame rate mode                          : Constant
Frame rate                               : 29.970 fps
Color space                              : YUV
Chroma subsampling                       : 4:2:0
Bit depth                                : 8 bits
Scan type                                : Progressive
Bits/(Pixel*Frame)                       : 0.165
Stream size                              : 1.72 GiB (92%)
Writing library                          : x264 core 120
Language                                 : English
Default                                  : Yes
Forced                                   : No
Color primaries                          : BT.709
Transfer characteristics                 : BT.709
Matrix coefficients                      : BT.709

Audio
ID                                       : 2
Format                                   : AC-3
Format/Info                              : Audio Coding 3
Mode extension                           : CM (complete main)
Format settings, Endianness              : Big
Codec ID                                 : A_AC3
Duration                                 : 25mn 32s
Bit rate mode                            : Constant
Bit rate                                 : 640 Kbps
Channel(s)                               : 2 channels
Channel positions                        : Front: L R
Sampling rate                            : 48.0 KHz
Bit depth                                : 16 bits
Compression mode                         : Lossy
Stream size                              : 117 MiB (6%)
Language                                 : English
Default                                  : Yes
Forced                                   : No

Text
ID                                       : 3
Format                                   : UTF-8
Codec ID                                 : S_TEXT/UTF8
Codec ID/Info                            : UTF-8 Plain Text
Language                                 : Spanish
Default                                  : Yes
Forced                                   : No



Set The Controls For The Heart Of The Sun [Live In Brighton 1972]

General
Format                                   : Matroska
Format version                           : Version 2
File size                                : 699 MiB
Duration                                 : 9mn 12s
Overall bit rate                         : 10.6 Mbps
Writing application                      : HandBrake 0.9.8
Writing library                          : libmkv 0.6.5

Video
ID                                       : 1
Format                                   : AVC
Format/Info                              : Advanced Video Codec
Format profile                           : High@L4.1
Format settings, CABAC                   : Yes
Format settings, ReFrames                : 3 frames
Codec ID                                 : V_MPEG4/ISO/AVC
Duration                                 : 9mn 12s
Bit rate                                 : 10 000 Kbps
Width                                    : 1 920 pixels
Height                                   : 1 456 pixels
Display aspect ratio                     : 4:3
Original display aspect ratio            : 4:3
Frame rate mode                          : Constant
Frame rate                               : 29.970 fps
Color space                              : YUV
Chroma subsampling                       : 4:2:0
Bit depth                                : 8 bits
Scan type                                : Progressive
Bits/(Pixel*Frame)                       : 0.119
Stream size                              : 643 MiB (92%)
Writing library                          : x264 core 120
Language                                 : English
Default                                  : Yes
Forced                                   : No
Color primaries                          : BT.709
Transfer characteristics                 : BT.709
Matrix coefficients                      : BT.709

Audio
ID                                       : 2
Format                                   : AC-3
Format/Info                              : Audio Coding 3
Mode extension                           : CM (complete main)
Format settings, Endianness              : Big
Codec ID                                 : A_AC3
Duration                                 : 9mn 12s
Bit rate mode                            : Constant
Bit rate                                 : 640 Kbps
Channel(s)                               : 2 channels
Channel positions                        : Front: L R
Sampling rate                            : 48.0 KHz
Bit depth                                : 16 bits
Compression mode                         : Lossy
Stream size                              : 42.2 MiB (6%)
Default                                  : Yes
Forced                                   : No








Enlaces de Mega y Google Drive solo disponibles para Miembros VIP

Compra tu Membresía VIP y apoya a Club-HD!

ATENCIÓN! Tenemos TODO el material de Club-HD disponible por Mega y Google Drive, enlaces 100% activos y online hasta la fecha

Llévate tus cuentas Mega PRO III gratis con tu membresía VIP!
Todos los posts vivos con links de Mega y Google Drive.
Todo el material de Club-HD desbloqueado y sin publicidad.

Click Aquí para más información.


Para ver este contenido oculto, debes dar click en una de las siguientes reacciones : Like Like, Love Love, Haha Haha, Wow Wow, Sad Sad, Angry Angry

 
Última edición por un moderador:

DoomsDay Elite

Well-known member
Registro
5 Sep 2012
Mensajes
1.222
como siempre la calidad en música y audio en club hd es impecable gracias por esta joya que nos traes
 

elgrandario

Well-known member
Miembro VIP
Registro
29 Ago 2012
Mensajes
1.008
Ubicación
Lima, Perú
muchas gracias gran club! cada día te idolatro más y más. quizá alguien piense que no tengo vida, pues a mi favor tengo que decir, que no es así, incluso mi novia duerme a mi costado, ella la que mantiene la casa :D jajajajaja, nada que ver, el trabaja como negro para vivir soy yo ;)
 

Usuarios Que Están Viendo Este Tema (Total: 1, Miembros: 0, Invitados: 1)

Quién Leyó Este Tema (Total Miembros: 3)

Arriba