Pitch Perfect (2012) m-720p Dual Latino-Inglés [Subt. Esp-Ing] (Comedia)

Maestro Revolver

Administrador
Registro
9 Ago 2012
Mensajes
3.157
Reacciones (ptje)
54.886


Pitch-Perfect-Dual.jpg




FICHA_TECNICA.png


TÍTULO ORIGINAL: Pitch Perfect
AÑO: 2012
PAÍS: USA
DIRECTOR: Jason Moore
GUIÓN: Kay Cannon, Jeffrey Roda
REPARTO: Anna Kendrick, Brittany Snow, Rebel Wilson, Christopher Mintz-Plasse, Rebel Wilson, Adam DeVine, Anna Camp, John Michael Higgins, Freddie Stroma, Skylar Astin, Judd Lormand
PRODUCTORA: Universal Pictures
GÉNERO: Comedia | Música. Colegios & Universidad
imdb-logo.png
: http://www.imdb.com/title/tt1981677/




SINOPSIS.png


Beca (Anna Kendrick) es de esas chicas que prefiere escuchar lo que sale de sus cascos a lo que pueda decirle alguien. Al llegar a la universidad, no tiene cabida en ningún grupo, pero la obligan a unirse a uno que jamás habría escogido, formado por chicas malas, chicas buenas y chicas raras que solo comparten una cosa: lo bien que suenan cuando están juntas cantando a coro. Beca quiere que el grupo de canto acústico salga del tradicional mundo musical y llegue a alcanzar armonías nuevas y sorprendentes. Las chicas deciden escalar puestos en el despiadado mundo del canto a cappella universitario. Su intento puede acabar siendo lo mejor que han hecho, o quizá su mayor locura. Probablemente sea una mezcla de las dos cosas.




TRAILER.png






CAPTURAS.png


1.jpg


2.jpg


3.jpg


4.jpg


5.jpg


6.jpg


La pelicula NO tiene ninguna marca... solo colocamos el nombre de esta web en las capturas




DATOS_TECNICOS.png


Código:
General
Format                                   : Matroska
Format version                           : Version 2
File size                                : 2.58 GiB
Duration                                 : 1h 52mn
Overall bit rate                         : 3 293 Kbps
Movie name                               : www.club-hd.com
Encoded date                             : UTC 2013-01-20 21:57:58
Writing application                      : mkvmerge v5.7.0 ('The Whirlwind') built on Jul  8 2012 20:08:51
Writing library                          : libebml v1.2.3 + libmatroska v1.3.0

Video
ID                                       : 1
Format                                   : AVC
Format/Info                              : Advanced Video Codec
Format profile                           : [email protected]
Format settings, CABAC                   : Yes
Format settings, ReFrames                : 9 frames
Codec ID                                 : V_MPEG4/ISO/AVC
Duration                                 : 1h 52mn
Bit rate                                 : 2 620 Kbps
Width                                    : 1 280 pixels
Height                                   : 690 pixels
Display aspect ratio                     : 1.85:1
Frame rate mode                          : Constant
Frame rate                               : 23.976 fps
Color space                              : YUV
Chroma subsampling                       : 4:2:0
Bit depth                                : 8 bits
Scan type                                : Progressive
Bits/(Pixel*Frame)                       : 0.124
Stream size                              : 2.00 GiB (78%)
Title                                    : www.club-hd.com
Writing library                          : x264 core 129 r2230 1cffe9f
Language                                 : English
Default                                  : Yes
Forced                                   : No

Audio #1
ID                                       : 2
Format                                   : AC-3
Format/Info                              : Audio Coding 3
Mode extension                           : CM (complete main)
Format settings, Endianness              : Big
Codec ID                                 : A_AC3
Duration                                 : 1h 52mn
Bit rate mode                            : Constant
Bit rate                                 : 224 Kbps
Channel(s)                               : 2 channels
Channel positions                        : Front: L R
Sampling rate                            : 44.1 KHz
Bit depth                                : 16 bits
Compression mode                         : Lossy
Delay relative to video                  : 200ms
Stream size                              : 180 MiB (7%)
Title                                    : www.club-hd.com  >>  Latino
Language                                 : Spanish
Default                                  : Yes
Forced                                   : No

Audio #2
ID                                       : 3
Format                                   : AC-3
Format/Info                              : Audio Coding 3
Mode extension                           : CM (complete main)
Format settings, Endianness              : Big
Codec ID                                 : A_AC3
Duration                                 : 1h 52mn
Bit rate mode                            : Constant
Bit rate                                 : 448 Kbps
Channel(s)                               : 6 channels
Channel positions                        : Front: L C R, Side: L R, LFE
Sampling rate                            : 48.0 KHz
Bit depth                                : 16 bits
Compression mode                         : Lossy
Stream size                              : 359 MiB (14%)
Title                                    : www.club-hd.com  >>  Inglés
Language                                 : English
Default                                  : No
Forced                                   : No

Text #1
ID                                       : 4
Format                                   : UTF-8
Codec ID                                 : S_TEXT/UTF8
Codec ID/Info                            : UTF-8 Plain Text
Title                                    : Forzados
Language                                 : Spanish
Default                                  : Yes
Forced                                   : No

Text #2
ID                                       : 5
Format                                   : UTF-8
Codec ID                                 : S_TEXT/UTF8
Codec ID/Info                            : UTF-8 Plain Text
Language                                 : Spanish
Default                                  : No
Forced                                   : No

Text #3
ID                                       : 6
Format                                   : UTF-8
Codec ID                                 : S_TEXT/UTF8
Codec ID/Info                            : UTF-8 Plain Text
Language                                 : English
Default                                  : No
Forced                                   : No

Menu
00:00:00.000                             : en:Chapter 1
00:04:32.564                             : en:Chapter 2
00:09:17.932                             : en:Chapter 3
00:15:50.908                             : en:Chapter 4
00:19:45.643                             : en:Chapter 5
00:23:08.470                             : en:Chapter 6
00:27:47.332                             : en:Chapter 7
00:32:45.755                             : en:Chapter 8
00:38:59.212                             : en:Chapter 9
00:43:53.881                             : en:Chapter 10
00:49:57.411                             : en:Chapter 11
00:54:20.466                             : en:Chapter 12
01:01:48.580                             : en:Chapter 13
01:06:26.441                             : en:Chapter 14
01:11:56.270                             : en:Chapter 15
01:18:56.899                             : en:Chapter 16
01:23:23.165                             : en:Chapter 17
01:33:42.116                             : en:Chapter 18
01:38:49.590                             : en:Chapter 19
01:44:46.238                             : en:Chapter 20






Nota, sobre el Audio Latino:
En la película hay partes habladas en inglés, para eso están los subtítulos Forzados.




Descarga.png




google-drive-vip.png


Tenemos TODO el material de Club-HD disponible por Mega, enlaces 100% activos y online hasta la fecha

Llévate tus cuentas Mega PRO III gratis con tu membresía VIP!
Todos los posts vivos con links de Mega.
Todo el material de Club-HD desbloqueado y sin publicidad.

Obtén más información sobre nuestras Membresías VIP




MEGA.jpg

Tenemos TODO el material de Club-HD disponible por Mega, enlaces 100% activos y online hasta la fecha

Llévate tus cuentas Mega PRO III gratis con tu membresía VIP!
Todos los posts vivos con links de Mega.
Todo el material de Club-HD desbloqueado y sin publicidad.

Obtén más información sobre nuestras Membresías VIP


1FICHIER-BANNER.png

Tenemos TODO el material de Club-HD disponible por Mega, enlaces 100% activos y online hasta la fecha

Llévate tus cuentas Mega PRO III gratis con tu membresía VIP!
Todos los posts vivos con links de Mega.
Todo el material de Club-HD desbloqueado y sin publicidad.

Obtén más información sobre nuestras Membresías VIP


UPLOADED.TO_BANNER.png

Para ver este contenido oculto, debes dar click en el botón"Like", o cualquiera de las otras reacciones:

Me Gusta Me Gusta, Me Encanta Me Encanta, Jaja Jaja, Wow Wow, Triste Triste, Molesto Molesto
 
Última edición por un moderador:
ya tenia la version en ingles pero ahora a bajar esta version dual, gracias revolver
 
No me llevo muy bien con los musicales...pero esta parece un poco mas entretenida...vamos a darle una oportunidad. Me la descargo.

Muchas Gracias
1.jpg


Saludos! victory
 
Volver