Pixar short films collection. Volume 2 (2012) 720p BDRip Audio Latino (Animación)

Maestro Revolver

Administrador
Registro
9 Ago 2012
Mensajes
3.157
Reacciones (ptje)
54.925


Pixar-vol-2.jpg




FichaTecnica.jpg


TÍTULO ORIGINAL: Pixar short films collection. Volume 2
AÑO: 2012
PAÍS: USA
DIRECTOR: Angus MacLane, Rob Gibbs, Jim Capobianco, Doug Sweetland, Peter Sohn, Ronnie del Carmen, Josh Cooley, Teddy Newton, Gary Rydstrom, Enrico Casarosa, John Lasseter, Andrew Stanton, Pete Docter
REPARTO: Animación
PRODUCTORA: Walt Disney Studios Home Entertainment
GÉNERO: Cortometrajes Animación




Sinopsis.jpg


Disney y Pixar nos traen una increible colección de 12 cortos, incluidos nomidados al Premio de la Academia y varios favoritos para ver en familia. Unete a esta coleccion imperdible, llena de animación, fantásticas historias y personajes que vas a adorar.


CORTOS
Your Friend the Rat (2007)
Presto (2008)
BURN-E (2008)
Partly Cloudy (2009)
Dug's Special Mission (2009)
George and A.J. (2009) (El unico que esta en inglés)
Day & Night (2010)
Hawaiian Vacation (2011)
Air Mater (2011)
Small Fry (2011)
La Luna (2011)
Time Travel Mater (2012)





Trailer.jpg






Capturas.jpg


1.jpg


2.jpg


3.jpg


4.jpg


5.jpg


6.jpg


La pelicula NO tiene ninguna marca... solo colocamos el nombre de esta web en las capturas




MediaInfo.jpg


Código:
Air Mater - Pixar


General
Format                                   : Matroska
Format version                           : Version 2
File size                                : 167 MiB
Duration                                 : 5mn 12s
Overall bit rate                         : 4 477 Kbps
Movie name                               : www.club-hd.com
Encoded date                             : UTC 2013-06-18 03:43:06
Writing application                      : mkvmerge v5.7.0 ('The Whirlwind') built on Jul  8 2012 20:08:51
Writing library                          : libebml v1.2.3 + libmatroska v1.3.0

Video
ID                                       : 1
Format                                   : AVC
Format/Info                              : Advanced Video Codec
Format profile                           : [email protected]
Format settings, CABAC                   : Yes
Format settings, ReFrames                : 5 frames
Codec ID                                 : V_MPEG4/ISO/AVC
Duration                                 : 5mn 12s
Bit rate                                 : 4 022 Kbps
Width                                    : 1 280 pixels
Height                                   : 720 pixels
Display aspect ratio                     : 16:9
Frame rate mode                          : Constant
Frame rate                               : 23.976 fps
Color space                              : YUV
Chroma subsampling                       : 4:2:0
Bit depth                                : 8 bits
Scan type                                : Progressive
Bits/(Pixel*Frame)                       : 0.182
Stream size                              : 147 MiB (88%)
Writing library                          : x264 core 128 r2216 198a7ea
Language                                 : English
Default                                  : Yes
Forced                                   : No

Audio
ID                                       : 2
Format                                   : AC-3
Format/Info                              : Audio Coding 3
Mode extension                           : CM (complete main)
Format settings, Endianness              : Big
Codec ID                                 : A_AC3
Duration                                 : 5mn 12s
Bit rate mode                            : Constant
Bit rate                                 : 448 Kbps
Channel(s)                               : 6 channels
Channel positions                        : Front: L C R, Side: L R, LFE
Sampling rate                            : 48.0 KHz
Bit depth                                : 16 bits
Compression mode                         : Lossy
Stream size                              : 16.7 MiB (10%)
Language                                 : Spanish
Default                                  : Yes
Forced                                   : No


_________________________________________


Partly Cloudy - Pixar



General
Format                                   : Matroska
Format version                           : Version 2
File size                                : 194 MiB
Duration                                 : 5mn 49s
Overall bit rate                         : 4 661 Kbps
Movie name                               : www.club-hd.com
Encoded date                             : UTC 2013-06-18 04:08:10
Writing application                      : mkvmerge v5.7.0 ('The Whirlwind') built on Jul  8 2012 20:08:51
Writing library                          : libebml v1.2.3 + libmatroska v1.3.0

Video
ID                                       : 1
Format                                   : AVC
Format/Info                              : Advanced Video Codec
Format profile                           : [email protected]
Format settings, CABAC                   : Yes
Format settings, ReFrames                : 5 frames
Codec ID                                 : V_MPEG4/ISO/AVC
Duration                                 : 5mn 49s
Bit rate                                 : 4 017 Kbps
Width                                    : 1 280 pixels
Height                                   : 720 pixels
Display aspect ratio                     : 16:9
Frame rate mode                          : Constant
Frame rate                               : 23.976 fps
Color space                              : YUV
Chroma subsampling                       : 4:2:0
Bit depth                                : 8 bits
Scan type                                : Progressive
Bits/(Pixel*Frame)                       : 0.182
Stream size                              : 163 MiB (84%)
Writing library                          : x264 core 128 r2216 198a7ea
Language                                 : English
Default                                  : Yes
Forced                                   : No

Audio
ID                                       : 2
Format                                   : AC-3
Format/Info                              : Audio Coding 3
Mode extension                           : CM (complete main)
Format settings, Endianness              : Big
Codec ID                                 : A_AC3
Duration                                 : 5mn 49s
Bit rate mode                            : Constant
Bit rate                                 : 640 Kbps
Channel(s)                               : 6 channels
Channel positions                        : Front: L C R, Side: L R, LFE
Sampling rate                            : 48.0 KHz
Bit depth                                : 16 bits
Compression mode                         : Lossy
Stream size                              : 26.6 MiB (14%)
Language                                 : English
Default                                  : Yes
Forced                                   : No




Descarga.jpg



MEGA.jpg

Tenemos TODO el material de Club-HD disponible por Mega, enlaces 100% activos y online hasta la fecha

Llévate tus cuentas Mega PRO III gratis con tu membresía VIP!
Todos los posts vivos con links de Mega.
Todo el material de Club-HD desbloqueado y sin publicidad.

Obtén más información sobre nuestras Membresías VIP


VIP_H.jpg


Tenemos TODO el material de Club-HD disponible por Mega, enlaces 100% activos y online hasta la fecha

Llévate tus cuentas Mega PRO III gratis con tu membresía VIP!
Todos los posts vivos con links de Mega.
Todo el material de Club-HD desbloqueado y sin publicidad.

Obtén más información sobre nuestras Membresías VIP


UPLOADED_BANNER.png

Para ver este contenido oculto, debes dar click en el botón"Like", o cualquiera de las otras reacciones:

Me Gusta Me Gusta, Me Encanta Me Encanta, Jaja Jaja, Wow Wow, Triste Triste, Molesto Molesto
OPENLOAD.png

 
Última edición por un moderador:
Muchas gracias por este aporte, excelente para los pequeños monstruos de la casa. :aplausos: :aplausos:

Gracias Master!!
 
muchas gracias man la descargare para verla el fin con mis sobrinos saludos
 
Volver