Planet of the Apes (1968) 1080p BDRip Dual Latino-Inglés [Subt. Esp] (Ciencia ficción. Aventura)

Maestro Revolver 1

Maestro Revolver

Well-known member
Miembro del Staff
Administrador
Registro
9 Ago 2012
Mensajes
3.567








TÍTULO ORIGINAL: Planet of the Apes
AÑO: 1968
DURACIÓN: 118 min.
PAÍS: USA
DIRECTOR: Franklin J. Schaffner
GUIÓN: Michael Wilson & Rod Serling (Novela: Pierre Boulle)
REPARTO: Charlton Heston, Roddy McDowall, Kim Hunter, Maurice Evans, James Whitmore, James Daly, Linda Harrison
PRODUCTORA: 20th Century Fox
GÉNERO: Ciencia ficción. Aventuras | Aventura espacial. Simios. Película de culto. Futuro postapocalíptico
: http://www.imdb.com/title/tt0063442/

Premios: 1968: 2 nominaciones al Oscar: Mejor vestuario, bso






George Taylor es un astronauta que forma parte de la tripulación de una nave espacial -en una misión de larga duración- que se estrella en un planeta desconocido en el que, a primera vista, no hay vida inteligente. Sin embargo, muy pronto se dará cuenta de que está gobernado por una raza de simios mentalmente muy desarrollados que esclavizan a unos seres humanos que carecen de la facultad de hablar. Cuando su líder, el doctor Zaius, descubre horrorizado que Taylor posee el don de la palabra, decide que hay que eliminarlo.
























La pelicula NO tiene ninguna marca... solo colocamos el nombre de esta web en las capturas






Código:
General
Format                                   : Matroska
Format version                           : Version 2
File size                                : 14.3 GiB
Duration                                 : 1h 52mn
Overall bit rate                         : 18.2 Mbps
Movie name                               : www.club-hd.com
Encoded date                             : UTC 2013-10-14 23:09:14
Writing application                      : mkvmerge v5.7.0 ('The Whirlwind') built on Jul  8 2012 20:08:51
Writing library                          : libebml v1.2.3 + libmatroska v1.3.0
Attachment                               : Yes / Yes

Video
ID                                       : 1
Format                                   : AVC
Format/Info                              : Advanced Video Codec
Format profile                           : High@L4.1
Format settings, CABAC                   : Yes
Format settings, ReFrames                : 5 frames
Codec ID                                 : V_MPEG4/ISO/AVC
Duration                                 : 1h 52mn
Bit rate                                 : 15.5 Mbps
Width                                    : 1 920 pixels
Height                                   : 816 pixels
Display aspect ratio                     : 2.35:1
Frame rate mode                          : Constant
Frame rate                               : 23.976 fps
Color space                              : YUV
Chroma subsampling                       : 4:2:0
Bit depth                                : 8 bits
Scan type                                : Progressive
Bits/(Pixel*Frame)                       : 0.413
Stream size                              : 12.2 GiB (85%)
Title                                    : www.club-hd.com
Writing library                          : x264 core 129 r2230kMod 1cffe9f
Language                                 : English
Default                                  : Yes
Forced                                   : No
Matrix coefficients                      : BT.709

Audio #1
ID                                       : 2
Format                                   : AC-3
Format/Info                              : Audio Coding 3
Mode extension                           : CM (complete main)
Format settings, Endianness              : Big
Codec ID                                 : A_AC3
Duration                                 : 1h 52mn
Bit rate mode                            : Constant
Bit rate                                 : 192 Kbps
Channel(s)                               : 2 channels
Channel positions                        : Front: L R
Sampling rate                            : 48.0 KHz
Bit depth                                : 16 bits
Compression mode                         : Lossy
Stream size                              : 154 MiB (1%)
Title                                    : www.club-hd.com  >>  Latino AC3 2.0
Language                                 : Spanish
Default                                  : Yes
Forced                                   : No

Audio #2
ID                                       : 3
Format                                   : AC-3
Format/Info                              : Audio Coding 3
Mode extension                           : CM (complete main)
Format settings, Endianness              : Big
Codec ID                                 : A_AC3
Duration                                 : 1h 52mn
Bit rate mode                            : Constant
Bit rate                                 : 640 Kbps
Channel(s)                               : 6 channels
Channel positions                        : Front: L C R, Side: L R, LFE
Sampling rate                            : 48.0 KHz
Bit depth                                : 16 bits
Compression mode                         : Lossy
Stream size                              : 513 MiB (4%)
Title                                    : www.club-hd.com  >>  Inglés AC3 5.1
Language                                 : English
Default                                  : No
Forced                                   : No

Audio #3
ID                                       : 4
Format                                   : DTS
Format/Info                              : Digital Theater Systems
Mode                                     : 16
Format settings, Endianness              : Big
Codec ID                                 : A_DTS
Duration                                 : 1h 52mn
Bit rate mode                            : Constant
Bit rate                                 : 1 509 Kbps
Channel(s)                               : 6 channels
Channel positions                        : Front: L C R, Side: L R, LFE
Sampling rate                            : 48.0 KHz
Bit depth                                : 24 bits
Compression mode                         : Lossy
Stream size                              : 1.18 GiB (8%)
Title                                    : www.club-hd.com  >>  Inglés DTS 5.1
Language                                 : English
Default                                  : No
Forced                                   : No

Text
ID                                       : 5
Format                                   : UTF-8
Codec ID                                 : S_TEXT/UTF8
Codec ID/Info                            : UTF-8 Plain Text
Language                                 : Spanish
Default                                  : No
Forced                                   : No

Menu
00:00:00.000                             : en:The Long Sleep
00:03:26.998                             : en:Main Titles
00:05:24.032                             : en:Crash Landing
00:11:36.487                             : en:The Expedition
00:19:01.515                             : en:The Seekers
00:21:10.727                             : en:Life
00:24:43.607                             : en:Scarecrows
00:27:52.379                             : en:The Clothes Snatchers
00:31:04.112                             : en:The Hunt
00:36:14.505                             : en:Zira
00:38:09.412                             : en:Dr. Zaius
00:42:57.449                             : en:Cornelius
00:46:18.192                             : en:"My Name Is Taylor"
00:48:08.385                             : en:"It's A Stunt"
00:53:46.598                             : en:No Escape
01:00:15.612                             : en:"It's A Madhouse!"
01:03:40.358                             : en:The Hearing
01:10:58.545                             : en:New Identity
01:12:59.541                             : en:Talking Heresy
01:16:37.718                             : en:Zaius' Fear
01:20:55.392                             : en:The Abduction
01:27:04.344                             : en:The Forbidden Zone
01:29:52.220                             : en:On the Beach
01:34:18.027                             : en:The Cave
01:38:39.622                             : en:The Hostage
01:43:44.426                             : en:Saying Goodbye
01:48:48.855                             : en:The Revelation
01:51:17.671                             : en:Cast of Characters








Enlaces de Mega y Google Drive solo disponibles para Miembros VIP

Compra tu Membresía VIP y apoya a Club-HD!

ATENCIÓN! Tenemos TODO el material de Club-HD disponible por Mega y Google Drive, enlaces 100% activos y online hasta la fecha

Llévate tus cuentas Mega PRO III gratis con tu membresía VIP!
Todos los posts vivos con links de Mega y Google Drive.
Todo el material de Club-HD desbloqueado y sin publicidad.

Click Aquí para más información.




Enlaces de Mega y Google Drive solo disponibles para Miembros VIP

Compra tu Membresía VIP y apoya a Club-HD!

ATENCIÓN! Tenemos TODO el material de Club-HD disponible por Mega y Google Drive, enlaces 100% activos y online hasta la fecha

Llévate tus cuentas Mega PRO III gratis con tu membresía VIP!
Todos los posts vivos con links de Mega y Google Drive.
Todo el material de Club-HD desbloqueado y sin publicidad.

Click Aquí para más información.



Para ver este contenido oculto, debes dar click en una de las siguientes reacciones : Like Like, Love Love, Haha Haha, Wow Wow, Sad Sad, Angry Angry
 
Última edición por un moderador:
elgrandario 0

elgrandario

Well-known member
Miembro VIP
Registro
29 Ago 2012
Mensajes
1.008
Ubicación
Lima, Perú
Muchas gracias. Maroon 5 es lo máximo! Sé bien que nada tiene que ver, pero es que estaba escuchando la canción she will be loved
 

Usuarios Que Están Viendo Este Tema (Total: 1, Miembros: 0, Invitados: 1)

Quién Leyó Este Tema (Total Miembros: 5)

Arriba