Playing for Keeps (2012) m-720p Audio Inglés [Subt. Esp-Ing] (Comedia. Romance)

Maestro Revolver

Administrador
Registro
9 Ago 2012
Mensajes
3.157
Reacciones (ptje)
54.885


Playing-for-Keeps.jpg




FichaTecnica.jpg


TÍTULO ORIGINAL: Playing for Keeps (AKA Playing the Field)
AÑO: 2012
DURACIÓN: 106 min.
PAÍS: USA
DIRECTOR: Gabriele Muccino
GUIÓN: Robbie Fox
REPARTO: Gerard Butler, Jessica Biel, Catherine Zeta-Jones, Uma Thurman, Dennis Quaid, Judy Greer, Noah Lomax, James Tupper, Iqbal Theba, Aidan Potter, Marlena Lerner
PRODUCTORA: Nu Image Films / Millennium Films
GÉNERO: Comedia. Romance | Comedia romántica. Deporte. Fútbol
imdb-logo.png
: http://www.imdb.com/title/tt1540128/




Sinopsis.jpg


Después de haber alcanzado en Europa un gran éxito profesional y mediático, un ex-jugador de fútbol (Gerard Butler) viaja a los Estados Unidos con la intención de reconciliarse con su ex-mujer (Jessica Biel) y con su hijo. Para empezar, decide entrenar al equipo infantil en el que juega el niño.




Trailer.jpg






Capturas.jpg


1.jpg


2.jpg


3.jpg


4.jpg


5.jpg


6.jpg


La pelicula NO tiene ninguna marca... solo colocamos el nombre de esta web en las capturas




MediaInfo.jpg


Código:
General
Format                                   : Matroska
Format version                           : Version 2
File size                                : 2.30 GiB
Duration                                 : 1h 45mn
Overall bit rate                         : 3 123 Kbps
Movie name                               : www.club-hd.com
Encoded date                             : UTC 2013-02-21 18:15:18
Writing application                      : mkvmerge v5.7.0 ('The Whirlwind') built on Jul  8 2012 20:08:51
Writing library                          : libebml v1.2.3 + libmatroska v1.3.0

Video
ID                                       : 1
Format                                   : AVC
Format/Info                              : Advanced Video Codec
Format profile                           : [email protected]
Format settings, CABAC                   : Yes
Format settings, ReFrames                : 9 frames
Codec ID                                 : V_MPEG4/ISO/AVC
Duration                                 : 1h 45mn
Bit rate                                 : 2 673 Kbps
Width                                    : 1 280 pixels
Height                                   : 534 pixels
Display aspect ratio                     : 2.40:1
Frame rate mode                          : Constant
Frame rate                               : 23.976 fps
Color space                              : YUV
Chroma subsampling                       : 4:2:0
Bit depth                                : 8 bits
Scan type                                : Progressive
Bits/(Pixel*Frame)                       : 0.163
Stream size                              : 1.93 GiB (84%)
Title                                    : www.club-hd.com
Writing library                          : x264 core 129 r2245 bc13772
Language                                 : English
Default                                  : Yes
Forced                                   : No

Audio
ID                                       : 2
Format                                   : AC-3
Format/Info                              : Audio Coding 3
Mode extension                           : CM (complete main)
Format settings, Endianness              : Big
Codec ID                                 : A_AC3
Duration                                 : 1h 45mn
Bit rate mode                            : Constant
Bit rate                                 : 448 Kbps
Channel(s)                               : 6 channels
Channel positions                        : Front: L C R, Side: L R, LFE
Sampling rate                            : 48.0 KHz
Bit depth                                : 16 bits
Compression mode                         : Lossy
Stream size                              : 338 MiB (14%)
Title                                    : www.club-hd.com
Language                                 : English
Default                                  : Yes
Forced                                   : No

Text #1
ID                                       : 3
Format                                   : UTF-8
Codec ID                                 : S_TEXT/UTF8
Codec ID/Info                            : UTF-8 Plain Text
Language                                 : Spanish
Default                                  : Yes
Forced                                   : No

Text #2
ID                                       : 4
Format                                   : UTF-8
Codec ID                                 : S_TEXT/UTF8
Codec ID/Info                            : UTF-8 Plain Text
Language                                 : English
Default                                  : No
Forced                                   : No

Menu
00:00:00.000                             : en:Chapter 1
00:05:20.570                             : en:Chapter 2
00:12:47.225                             : en:Chapter 3
00:17:47.942                             : en:Chapter 4
00:26:00.768                             : en:Chapter 5
00:29:59.464                             : en:Chapter 6
00:37:14.816                             : en:Chapter 7
00:41:30.863                             : en:Chapter 8
00:49:01.814                             : en:Chapter 9
00:57:41.041                             : en:Chapter 10
01:01:35.692                             : en:Chapter 11
01:07:56.281                             : en:Chapter 12
01:13:48.466                             : en:Chapter 13
01:19:21.215                             : en:Chapter 14
01:24:21.848                             : en:Chapter 15
01:30:05.317                             : en:Chapter 16




Descarga.jpg




google-drive-vip.png


Tenemos TODO el material de Club-HD disponible por Mega, enlaces 100% activos y online hasta la fecha

Llévate tus cuentas Mega PRO III gratis con tu membresía VIP!
Todos los posts vivos con links de Mega.
Todo el material de Club-HD desbloqueado y sin publicidad.

Obtén más información sobre nuestras Membresías VIP




MEGA.jpg

Tenemos TODO el material de Club-HD disponible por Mega, enlaces 100% activos y online hasta la fecha

Llévate tus cuentas Mega PRO III gratis con tu membresía VIP!
Todos los posts vivos con links de Mega.
Todo el material de Club-HD desbloqueado y sin publicidad.

Obtén más información sobre nuestras Membresías VIP



UPLOADED_BANNER.png

Para ver este contenido oculto, debes dar click en el botón"Like", o cualquiera de las otras reacciones:

Me Gusta Me Gusta, Me Encanta Me Encanta, Jaja Jaja, Wow Wow, Triste Triste, Molesto Molesto
 
Última edición por un moderador:
otro estreno mas, esta pelicula apenas salio en el cine de mi ciudad y tu ya me ahorraste todo el gasto jeje gracias revolver
 
Volver