Post Tenebras Lux (2012) 720p BDRip Audio Español Latino (Drama)

Maestro Revolver

Administrador
Registro
9 Ago 2012
Mensajes
3.157
Reacciones (ptje)
54.925
Aporte recuperado gracias a nuestro amigo Dynky

Post-Tenebras-Lux.jpg




FichaTecnica.jpg


TÍTULO ORIGINAL: Post Tenebras Lux
AÑO: 2012
DURACIÓN: 120 min.
PAÍS: México
DIRECTOR: Carlos Reygadas
GUIÓN: Carlos Reygadas
REPARTO: Adolfo Jiménez Castro, Nathalia Acevedo, Willebaldo Torres, Rut Reygadas, Eleazar Reygadas
PRODUCTORA: Coproducción México-Francia-Holanda-Alemania; No Dream Cinema / Mantarraya Producciones / Le Pacte / Topkapi Films / The Match Factory
GÉNERO: Drama | Vida rural. Cine experimental

imdb-logo.png
: http://www.imdb.com/title/tt1754367/


Premios: 2012: Festival de Cannes: Mejor director
2012: Festival de La Habana: Mejor fotografía y mejor banda sonora




Sinopsis.jpg


Juan y su familia urbana viven en el campo mexicano, donde ellos disfrutan y sufren un mundo aparte. Y nadie sabe si estos dos mundos son complementarios o si se esfuerzan por eliminar el uno al otro.




Trailer.jpg






Capturas.jpg


1.jpg


2.jpg


3.jpg


4.jpg


5.jpg


6.jpg


La pelicula NO tiene ninguna marca... solo colocamos el nombre de esta web en las capturas




MediaInfo.jpg


Código:
General
Format                                   : Matroska
Format version                           : Version 2
File size                                : 4.60 GiB
Duration                                 : 1h 54mn
Overall bit rate                         : 5 745 Kbps
Movie name                               : www.club-hd.com
Encoded date                             : UTC 2013-07-27 01:24:34
Writing application                      : mkvmerge v5.7.0 ('The Whirlwind') built on Jul  8 2012 20:08:51
Writing library                          : libebml v1.2.3 + libmatroska v1.3.0

Video
ID                                       : 1
Format                                   : AVC
Format/Info                              : Advanced Video Codec
Format profile                           : [email protected]
Format settings, CABAC                   : Yes
Format settings, ReFrames                : 5 frames
Codec ID                                 : V_MPEG4/ISO/AVC
Duration                                 : 1h 54mn
Bit rate                                 : 5 297 Kbps
Width                                    : 944 pixels
Height                                   : 720 pixels
Display aspect ratio                     : 4:3
Frame rate mode                          : Constant
Frame rate                               : 24.000 fps
Color space                              : YUV
Chroma subsampling                       : 4:2:0
Bit depth                                : 8 bits
Scan type                                : Progressive
Bits/(Pixel*Frame)                       : 0.325
Stream size                              : 4.15 GiB (90%)
Title                                    : www.club-hd.com
Writing library                          : x264 core 135 r2345kMod f0c1c53
Language                                 : English
Default                                  : Yes
Forced                                   : No

Audio
ID                                       : 2
Format                                   : AC-3
Format/Info                              : Audio Coding 3
Mode extension                           : CM (complete main)
Format settings, Endianness              : Big
Codec ID                                 : A_AC3
Duration                                 : 1h 54mn
Bit rate mode                            : Constant
Bit rate                                 : 448 Kbps
Channel(s)                               : 6 channels
Channel positions                        : Front: L C R, Side: L R, LFE
Sampling rate                            : 48.0 KHz
Bit depth                                : 16 bits
Compression mode                         : Lossy
Stream size                              : 368 MiB (8%)
Title                                    : www.club-hd.com
Language                                 : Spanish
Default                                  : Yes
Forced                                   : No




CONTRASE%C3%91A-FINAL.png


Código:
www.club-hd.com




Descarga.jpg



MEGA.jpg

Tenemos TODO el material de Club-HD disponible por Mega, enlaces 100% activos y online hasta la fecha

Llévate tus cuentas Mega PRO III gratis con tu membresía VIP!
Todos los posts vivos con links de Mega.
Todo el material de Club-HD desbloqueado y sin publicidad.

Obtén más información sobre nuestras Membresías VIP



UPLOADED_BANNER.png

Para ver este contenido oculto, debes dar click en el botón"Like", o cualquiera de las otras reacciones:

Me Gusta Me Gusta, Me Encanta Me Encanta, Jaja Jaja, Wow Wow, Triste Triste, Molesto Molesto
 
Última edición por un moderador:
Muchas gracias Revolver :aplausos: Derechito a la lista :D Saludos bye
 
Como lo hace Pnsand0Pnsand0Pnsand0Pnsand0 menos averigua dios y perdona :crcjd::crcjd::crcjd: gracias Bestia23 !!!!
 
No he escuchado nada sobre esta pelicula, voy a ver que tal está, igual y me gusta!!!
Desc_g_
 
Volver