Premium Rush (2012) m-720p Dual Latino-Inglés [Subt. Esp-Ing] (Acción. Thriller)

Maestro Revolver

Administrador
Registro
9 Ago 2012
Mensajes
3.157
Reacciones (ptje)
54.886


Premium-Rush-Dual.jpg




FICHA_TECNICA.png


TÍTULO ORIGINAL: Premium Rush
AÑO: 2012
DURACIÓN: 91 min.
PAÍS: USA
DIRECTOR: David Koepp
GUIÓN: David Koepp, John Kamps
REPARTO: Joseph Gordon-Levitt, Jamie Chung, Michael Shannon, Aasif Mandvi, Dania Ramirez, Aaron Tveit
PRODUCTORA: Columbia Pictures / Pariah
GÉNERO: Acción. Thriller | Ciclismo
imdb-logo.png
: http://www.imdb.com/title/tt1547234/




SINOPSIS.png


En Nueva York, un mensajero (Gordon-Levitt) que es perseguido por toda la ciudad por un policía corrupto, intenta llegar con su bicicleta a la Universidad de Columbia para entregar un misterioso paquete.




TRAILER.png






CAPTURAS.png


1.jpg


2.jpg


3.jpg


4.jpg


5.jpg


6.jpg


La pelicula NO tiene ninguna marca... solo colocamos el nombre de esta web en las capturas




DATOS_TECNICOS.png


Código:
General
Format                                   : Matroska
Format version                           : Version 2
File size                                : 2.51 GiB
Duration                                 : 1h 30mn
Overall bit rate                         : 3 952 Kbps
Movie name                               : www.club-hd.com
Encoded date                             : UTC 2012-12-09 19:25:15
Writing application                      : mkvmerge v5.7.0 ('The Whirlwind') built on Jul  8 2012 20:08:51
Writing library                          : libebml v1.2.3 + libmatroska v1.3.0

Video
ID                                       : 1
Format                                   : AVC
Format/Info                              : Advanced Video Codec
Format profile                           : [email protected]
Format settings, CABAC                   : Yes
Format settings, ReFrames                : 9 frames
Codec ID                                 : V_MPEG4/ISO/AVC
Duration                                 : 1h 30mn
Bit rate                                 : 2 670 Kbps
Width                                    : 1 280 pixels
Height                                   : 534 pixels
Display aspect ratio                     : 2.40:1
Frame rate mode                          : Constant
Frame rate                               : 23.976 fps
Color space                              : YUV
Chroma subsampling                       : 4:2:0
Bit depth                                : 8 bits
Scan type                                : Progressive
Bits/(Pixel*Frame)                       : 0.163
Stream size                              : 1.65 GiB (66%)
Title                                    : www.club-hd.com
Writing library                          : x264 core 129 r2230 1cffe9f
Language                                 : English
Default                                  : Yes
Forced                                   : No

Audio #1
ID                                       : 2
Format                                   : AC-3
Format/Info                              : Audio Coding 3
Mode extension                           : CM (complete main)
Format settings, Endianness              : Big
Codec ID                                 : A_AC3
Duration                                 : 1h 30mn
Bit rate mode                            : Constant
Bit rate                                 : 640 Kbps
Channel(s)                               : 6 channels
Channel positions                        : Front: L C R, Side: L R, LFE
Sampling rate                            : 48.0 KHz
Bit depth                                : 16 bits
Compression mode                         : Lossy
Stream size                              : 416 MiB (16%)
Title                                    : www.club-hd.com  >>  Latino
Language                                 : Spanish
Default                                  : Yes
Forced                                   : No

Audio #2
ID                                       : 3
Format                                   : AC-3
Format/Info                              : Audio Coding 3
Mode extension                           : CM (complete main)
Format settings, Endianness              : Big
Codec ID                                 : A_AC3
Duration                                 : 1h 30mn
Bit rate mode                            : Constant
Bit rate                                 : 640 Kbps
Channel(s)                               : 6 channels
Channel positions                        : Front: L C R, Side: L R, LFE
Sampling rate                            : 48.0 KHz
Bit depth                                : 16 bits
Compression mode                         : Lossy
Stream size                              : 416 MiB (16%)
Title                                    : www.club-hd.com  >>  Inglés
Language                                 : English
Default                                  : No
Forced                                   : No

Text #1
ID                                       : 4
Format                                   : UTF-8
Codec ID                                 : S_TEXT/UTF8
Codec ID/Info                            : UTF-8 Plain Text
Language                                 : Spanish
Default                                  : No
Forced                                   : No

Text #2
ID                                       : 5
Format                                   : UTF-8
Codec ID                                 : S_TEXT/UTF8
Codec ID/Info                            : UTF-8 Plain Text
Language                                 : English
Default                                  : No
Forced                                   : No

Menu
00:00:00.000                             : en:Chapter 1
00:05:43.301                             : en:Chapter 2
00:10:33.675                             : en:Chapter 3
00:19:39.845                             : en:Chapter 4
00:22:41.402                             : en:Chapter 5
00:28:54.107                             : en:Chapter 6
00:33:01.563                             : en:Chapter 7
00:37:37.172                             : en:Chapter 8
00:44:25.413                             : en:Chapter 9
00:50:52.758                             : en:Chapter 10
00:55:17.773                             : en:Chapter 11
00:58:40.600                             : en:Chapter 12
01:02:10.936                             : en:Chapter 13
01:09:15.234                             : en:Chapter 14
01:15:52.757                             : en:Chapter 15
01:22:29.862                             : en:Chapter 16




Sin Contraseña | Simple Extracción




Descarga.png

Links Intercambiables



google-drive-vip.png


Tenemos TODO el material de Club-HD disponible por Mega, enlaces 100% activos y online hasta la fecha

Llévate tus cuentas Mega PRO III gratis con tu membresía VIP!
Todos los posts vivos con links de Mega.
Todo el material de Club-HD desbloqueado y sin publicidad.

Obtén más información sobre nuestras Membresías VIP




MEGA.jpg

Tenemos TODO el material de Club-HD disponible por Mega, enlaces 100% activos y online hasta la fecha

Llévate tus cuentas Mega PRO III gratis con tu membresía VIP!
Todos los posts vivos con links de Mega.
Todo el material de Club-HD desbloqueado y sin publicidad.

Obtén más información sobre nuestras Membresías VIP


UPLOADED.TO_BANNER.png

Para ver este contenido oculto, debes dar click en el botón"Like", o cualquiera de las otras reacciones:

Me Gusta Me Gusta, Me Encanta Me Encanta, Jaja Jaja, Wow Wow, Triste Triste, Molesto Molesto

OPENLOAD.png


Para ver este contenido oculto, debes dar click en el botón"Like", o cualquiera de las otras reacciones:

Me Gusta Me Gusta, Me Encanta Me Encanta, Jaja Jaja, Wow Wow, Triste Triste, Molesto Molesto
 
Última edición por un moderador:
Gracias!!! si es extraña solo los audios T_T!:slbd:
 
Será posible volver a tener solo el audio latino para aquellos que ya la descargamos en el idioma original? Desde ya muchas gracias por los excelentes aportes, sigan asi!!!
 
Volver