• Buenos dias amigos del club. Les queremos avisar que ya recuperamos el acceso a las webs de las Membresías VIP y del Paste. Asi que ya pueden comprar sus membresías y descargar todos los estrenos nuevamente.

Prisoners (2013) 1080p BDRip Dual Latino-Inglés [Subt. Esp] (Thriller. Drama)

Maestro Revolver

Administrador
Registro
9 Ago 2012
Mensajes
3.157
Reacciones (ptje)
55.317


Prisoners-1080p.jpg




FichaTecnica.jpg


TÍTULO ORIGINAL: Prisoners
AÑO: 2013
DURACIÓN: 153 min.
PAÍS: USA
DIRECTOR: Denis Villeneuve
GUIÓN: Aaron Guzikowski
REPARTO: Hugh Jackman, Jake Gyllenhaal, Viola Davis, Maria Bello, Terrence Howard, Melissa Leo, Paul Dano, David Dastmalchian, Dylan Minnette, Erin Gerasimovich, Kyla Drew Simmons, Zoe Soul, Len Cariou, Wayne Duvall, Sandra Ellis Laffert
PRODUCTORA: WB / Alcon Entertainment / 8:38 Productions / Madhouse Entertainment
GÉNERO: Thriller. Drama | Crimen. Policíaco. Secuestros / Desapariciones. Venganza
imdb-logo.png
: http://www.imdb.com/title/tt1392214/

Premios: 2013: Festival de Toronto: Finalista al Premio del público (Mejor película)




Sinopsis.jpg


Keller Dover se enfrenta a la peor pesadilla de un padre. Anna, su hija de seis años, ha desaparecido con su amiga Joy y, a medida que pasa el tiempo, el pánico lo va dominando. Desesperado, decide ocuparse personalmente del asunto. Pero, ¿hasta dónde está dispuesto a llegar para averiguar el paradero de su hija?




Trailer.jpg






Capturas.jpg


1.jpg


2.jpg


3.jpg


4.jpg


5.jpg


6.jpg


La pelicula NO tiene ninguna marca... solo colocamos el nombre de esta web en las capturas




MediaInfo.jpg


Código:
General
Format                                   : Matroska
Format version                           : Version 2
File size                                : 12.3 GiB
Duration                                 : 2h 33mn
Overall bit rate                         : 11.5 Mbps
Movie name                               : www.club-hd.com
Encoded date                             : UTC 2013-12-04 22:15:45
Writing application                      : mkvmerge v5.7.0 ('The Whirlwind') built on Jul  8 2012 20:08:51
Writing library                          : libebml v1.2.3 + libmatroska v1.3.0

Video
ID                                       : 1
Format                                   : AVC
Format/Info                              : Advanced Video Codec
Format profile                           : [email protected]
Format settings, CABAC                   : Yes
Format settings, ReFrames                : 4 frames
Codec ID                                 : V_MPEG4/ISO/AVC
Duration                                 : 2h 33mn
Bit rate                                 : 8 704 Kbps
Width                                    : 1 920 pixels
Height                                   : 1 080 pixels
Display aspect ratio                     : 16:9
Frame rate mode                          : Constant
Frame rate                               : 23.976 fps
Color space                              : YUV
Chroma subsampling                       : 4:2:0
Bit depth                                : 8 bits
Scan type                                : Progressive
Bits/(Pixel*Frame)                       : 0.175
Stream size                              : 9.07 GiB (74%)
Title                                    : www.club-hd.com
Writing library                          : x264 core 140 r2377 1ca7bb9
Language                                 : English
Default                                  : Yes
Forced                                   : No

Audio #1
ID                                       : 2
Format                                   : AC-3
Format/Info                              : Audio Coding 3
Mode extension                           : CM (complete main)
Format settings, Endianness              : Big
Codec ID                                 : A_AC3
Duration                                 : 2h 33mn
Bit rate mode                            : Constant
Bit rate                                 : 640 Kbps
Channel(s)                               : 6 channels
Channel positions                        : Front: L C R, Side: L R, LFE
Sampling rate                            : 48.0 KHz
Bit depth                                : 16 bits
Compression mode                         : Lossy
Stream size                              : 701 MiB (6%)
Title                                    : www.club-hd.com  >>  Latino AC3 5.1
Language                                 : Spanish
Default                                  : Yes
Forced                                   : No

Audio #2
ID                                       : 3
Format                                   : AC-3
Format/Info                              : Audio Coding 3
Mode extension                           : CM (complete main)
Format settings, Endianness              : Big
Codec ID                                 : A_AC3
Duration                                 : 2h 33mn
Bit rate mode                            : Constant
Bit rate                                 : 640 Kbps
Channel(s)                               : 6 channels
Channel positions                        : Front: L C R, Side: L R, LFE
Sampling rate                            : 48.0 KHz
Bit depth                                : 16 bits
Compression mode                         : Lossy
Stream size                              : 701 MiB (6%)
Title                                    : www.club-hd.com  >> Inglés AC3 5.1
Language                                 : English
Default                                  : No
Forced                                   : No

Audio #3
ID                                       : 4
Format                                   : DTS
Format/Info                              : Digital Theater Systems
Mode                                     : 16
Format settings, Endianness              : Big
Codec ID                                 : A_DTS
Duration                                 : 2h 33mn
Bit rate mode                            : Constant
Bit rate                                 : 1 509 Kbps
Channel(s)                               : 6 channels
Channel positions                        : Front: L C R, Side: L R, LFE
Sampling rate                            : 48.0 KHz
Bit depth                                : 24 bits
Compression mode                         : Lossy
Stream size                              : 1.61 GiB (13%)
Title                                    : www.club-hd.com  >> Inglés DTS 5.1
Language                                 : English
Default                                  : No
Forced                                   : No

Text
ID                                       : 5
Format                                   : UTF-8
Codec ID                                 : S_TEXT/UTF8
Codec ID/Info                            : UTF-8 Plain Text
Language                                 : Spanish
Default                                  : No
Forced                                   : No

Menu
00:00:00.000                             : en:00:00:00.000
00:08:50.780                             : en:00:08:50.780
00:19:52.149                             : en:00:19:52.149
00:30:18.942                             : en:00:30:18.942
00:40:23.838                             : en:00:40:23.838
00:49:36.974                             : en:00:49:36.974
00:59:27.898                             : en:00:59:27.898
01:08:24.726                             : en:01:08:24.726
01:17:29.103                             : en:01:17:29.103
01:29:17.394                             : en:01:29:17.394
01:41:34.797                             : en:01:41:34.797
01:51:36.815                             : en:01:51:36.815
01:59:39.255                             : en:01:59:39.255
02:11:46.690                             : en:02:11:46.690
02:19:50.841                             : en:02:19:50.841
02:25:54.287                             : en:02:25:54.287




Descarga.jpg



MEGA.jpg

Tenemos TODO el material de Club-HD disponible por Mega, enlaces 100% activos y online hasta la fecha

Llévate tus cuentas Mega PRO III gratis con tu membresía VIP!
Todos los posts vivos con links de Mega.
Todo el material de Club-HD desbloqueado y sin publicidad.

Obtén más información sobre nuestras Membresías VIP



UPLOADED_BANNER.png

Para ver este contenido oculto, debes dar click en el botón"Like", o cualquiera de las otras reacciones:

Me Gusta Me Gusta, Me Encanta Me Encanta, Jaja Jaja, Wow Wow, Triste Triste, Molesto Molesto

OPENLOAD.png

Para ver este contenido oculto, debes dar click en el botón"Like", o cualquiera de las otras reacciones:

Me Gusta Me Gusta, Me Encanta Me Encanta, Jaja Jaja, Wow Wow, Triste Triste, Molesto Molesto
 
Última edición por un moderador:
Graciassssssssssssss excelente aporte!!!!, como lo prometiste maestro revolver!!!!
 
Gracias Men Excelente Aporte :aplausos: :aplausos: :dplgar: :dplgar: Tb_up3 Desc_g_ Tb_up3 :dplgar: :dplgar: :aplausos: :aplausos:
 
Muchas gracias Revol, de una va para la lista de descargas :aplausos:
 
Volver