Promised Land (2012) m-720p Dual Latino-Inglés [Subt. Esp-Ing] (Drama)

Maestro Revolver

Well-known member
Miembro del Staff
Administrador
Registro
9 Ago 2012
Mensajes
3.567








TÍTULO ORIGINAL: Promised Land
AÑO: 2012
DURACIÓN: 106 min.
PAÍS: USA
DIRECTOR: Gus Van Sant
GUIÓN: Matt Damon, John Krasinski
REPARTO: Matt Damon, John Krasinski, Lucas Black, Frances McDormand, Rosemarie DeWitt, Hal Holbrook, Titus Welliver, Tim Guinee, Scoot McNairy, Terry Kinney, Johnny Cicco, Rosemary Howard, Sara Lindsey, Lennon Wynn, John W. Iwanonkiw, Lexi Cowan, Kristin Slaysman, Joe Coyle, Jennifer Obed, Carla Bianco
PRODUCTORA: Universal Pictures / Focus Features / Participant Media / Imagen Nation
GÉNERO: Drama | Vida rural (Norteamérica). Crisis económica actual
: http://www.imdb.com/title/tt2091473/

Premios: 2012: National Board of Review (NBR): 10 mejores películas del año
2013: Festival de Berlín: Mención especial (ex-aequo con "Layla Fourie")






Steve Butler (Matt Damon), un ejecutivo de una gran empresa, llega a un pueblo con su compañera de trabajo, Sue Thomason (Frances McDormand), para comprar los derechos de perforación a los propietarios de las tierras, casi todos ganaderos. En esa población, asolada por la crisis económica de los últimos años, Steve intentará convencer a la gente de los beneficios de perforar sus tierras, pero también tendrá ocasión de reconsiderar lo que ha sido su vida hasta ese momento.
























La pelicula NO tiene ninguna marca... solo colocamos el nombre de esta web en las capturas






Código:
General
Format                                   : Matroska
Format version                           : Version 2
File size                                : 2.69 GiB
Duration                                 : 1h 46mn
Overall bit rate                         : 3 609 Kbps
Movie name                               : www.club-hd.com
Encoded date                             : UTC 2013-04-14 16:46:40
Writing application                      : mkvmerge v5.7.0 ('The Whirlwind') built on Jul  8 2012 20:08:51
Writing library                          : libebml v1.2.3 + libmatroska v1.3.0

Video
ID                                       : 1
Format                                   : AVC
Format/Info                              : Advanced Video Codec
Format profile                           : High@L4.1
Format settings, CABAC                   : Yes
Format settings, ReFrames                : 9 frames
Codec ID                                 : V_MPEG4/ISO/AVC
Duration                                 : 1h 46mn
Bit rate                                 : 2 711 Kbps
Width                                    : 1 280 pixels
Height                                   : 694 pixels
Display aspect ratio                     : 1.85:1
Frame rate mode                          : Constant
Frame rate                               : 23.976 fps
Color space                              : YUV
Chroma subsampling                       : 4:2:0
Bit depth                                : 8 bits
Scan type                                : Progressive
Bits/(Pixel*Frame)                       : 0.127
Stream size                              : 1.97 GiB (73%)
Title                                    : www.club-hd.com
Writing library                          : x264 core 130 r2273 b3065e6
Language                                 : English
Default                                  : Yes
Forced                                   : No

Audio #1
ID                                       : 2
Format                                   : AC-3
Format/Info                              : Audio Coding 3
Mode extension                           : CM (complete main)
Format settings, Endianness              : Big
Codec ID                                 : A_AC3
Duration                                 : 1h 46mn
Bit rate mode                            : Constant
Bit rate                                 : 448 Kbps
Channel(s)                               : 6 channels
Channel positions                        : Front: L C R, Side: L R, LFE
Sampling rate                            : 48.0 KHz
Bit depth                                : 16 bits
Compression mode                         : Lossy
Stream size                              : 342 MiB (12%)
Title                                    : www.club-hd.com  >>  Latino
Language                                 : Spanish
Default                                  : Yes
Forced                                   : No

Audio #2
ID                                       : 3
Format                                   : AC-3
Format/Info                              : Audio Coding 3
Mode extension                           : CM (complete main)
Format settings, Endianness              : Big
Codec ID                                 : A_AC3
Duration                                 : 1h 46mn
Bit rate mode                            : Constant
Bit rate                                 : 448 Kbps
Channel(s)                               : 6 channels
Channel positions                        : Front: L C R, Side: L R, LFE
Sampling rate                            : 48.0 KHz
Bit depth                                : 16 bits
Compression mode                         : Lossy
Stream size                              : 342 MiB (12%)
Title                                    : www.club-hd.com  >>  Inglés
Language                                 : English
Default                                  : No
Forced                                   : No

Text
ID                                       : 4
Format                                   : UTF-8
Codec ID                                 : S_TEXT/UTF8
Codec ID/Info                            : UTF-8 Plain Text
Language                                 : Spanish
Default                                  : No
Forced                                   : No

Menu
00:00:00.000                             : en:Chapter 1
00:06:50.994                             : en:Chapter 2
00:10:02.060                             : en:Chapter 3
00:15:42.942                             : en:Chapter 4
00:20:22.805                             : en:Chapter 5
00:26:18.327                             : en:Chapter 6
00:35:55.445                             : en:Chapter 7
00:41:18.643                             : en:Chapter 8
00:47:36.854                             : en:Chapter 9
00:50:22.269                             : en:Chapter 10
00:56:10.826                             : en:Chapter 11
01:01:59.674                             : en:Chapter 12
01:06:47.212                             : en:Chapter 13
01:11:37.376                             : en:Chapter 14
01:17:27.226                             : en:Chapter 15
01:23:44.061                             : en:Chapter 16
01:27:00.799                             : en:Chapter 17
01:32:14.529                             : en:Chapter 18
01:38:59.767                             : en:Chapter 19
01:42:05.578                             : en:Chapter 20








Enlaces de Mega y Google Drive solo disponibles para Miembros VIP

Compra tu Membresía VIP y apoya a Club-HD!

ATENCIÓN! Tenemos TODO el material de Club-HD disponible por Mega y Google Drive, enlaces 100% activos y online hasta la fecha

Llévate tus cuentas Mega PRO III gratis con tu membresía VIP!
Todos los posts vivos con links de Mega y Google Drive.
Todo el material de Club-HD desbloqueado y sin publicidad.

Click Aquí para más información.



Para ver este contenido oculto, debes dar click en una de las siguientes reacciones : Like Like, Love Love, Haha Haha, Wow Wow, Sad Sad, Angry Angry

 
Última edición por un moderador:

Ramirez2064

Active member
Registro
29 Ago 2012
Mensajes
463
Edad
34
Estas peliculas me encantan! gracias señores por compartirlas, vivi un tiempo en una comunidad asi y em trae buenos recuerdos.
 

DoomsDay Elite

Well-known member
Registro
5 Sep 2012
Mensajes
1.222
si a ver que tal va esta !de todos modos cualquier pelicula publicada en el club vale la pena verla !!! gracias como siempre
 

Usuarios Que Están Viendo Este Tema (Total: 1, Miembros: 0, Invitados: 1)

Quién Leyó Este Tema (Total Miembros: 3)

Arriba