Queen: Rock Montreal And Live Aid (1981) 720p [AC3 5.1] [DTS] (Concierto)

Maestro Revolver

Administrador
Registro
9 Ago 2012
Mensajes
3.157
Reacciones (ptje)
54.885

Queen-Rock-Montreal-1981.png



FICHA_TECNICA.png


Artista: Queen
Titulo: Rock Montreal And Live Aid
Año: 1981
Genero: Rock Clásico, Hard Rock, Pop Rock, Arena Rock, Glam.


SINOPSIS.png


Queen Rock Montreal es un doble-disco en vivo realizado por la banda de Rock inglesa Queen luego de grabar 2 presentaciones en Montreal-Canadá en noviembre de 1981, exactamente 10 años antes de la muerte de Freddie Mercury. El álbum fue publicado el 29 de octubre de 2007 en Europa y el 30 del mismo mes en Estados Unidos.

Esta fue la primera grabación en video de un concierto realizada por Queen que fuera realizado luego como "We Will Rock You", ahora fue lanzado bajo el nombre de "Queen Rock Montreal".



Track Listing:
01. Intro
02. We Will Rock You (fast)
03. Let Me Entertain You
04. Play The Game
05. Somebody To Love
06. Killer Queen
07. I'm In Love With My Car
08. Get Down Make Love
09. Save Me
10. Now I'm Here
11. Dragon Attack
12. Now I'm Here (reprise)
13. Love Of My Life
14. Under Pressure
15. Keep Yourself Alive
16. Drum And Timpani Solo
17. Guitar Solo
18. Crazy Little Thing Called Love
19. Jailhouse Rock
20. Bohemian Rhapsody
21. Tie Your Mother Down
22. Another One Bites The Dust
23. Sheer Heart Attack
24. We Will Rock You
25. We Are The Champions
26. God Save The Queen




TRAILER.png






CAPTURAS.png


1.jpg


2.jpg


3.jpg


4.jpg


5.jpg


6.jpg


7.jpg


8.jpg


La pelicula NO tiene ninguna marca... solo coloque mi nombre de usuario en las capturas




DATOS_TECNICOS.png


Código:
Format                                   : Matroska
Format version                           : Version 2
File size                                : 6.67 GiB
Duration                                 : 1h 35mn
Overall bit rate                         : 10.0 Mbps
Movie name                               : www.club-hd.com
Encoded date                             : UTC 2012-05-15 04:00:20
Writing application                      : mkvmerge v5.2.1 ('A Far Off Place') built on Jan  2 2012 23:21:10
Writing library                          : libebml v1.2.3 + libmatroska v1.3.0
Attachment                               : Yes

Video
ID                                       : 1
Format                                   : AVC
Format/Info                              : Advanced Video Codec
Format profile                           : [email protected]
Format settings, CABAC                   : Yes
Format settings, ReFrames                : 9 frames
Muxing mode                              : Header stripping
Codec ID                                 : V_MPEG4/ISO/AVC
Duration                                 : 1h 35mn
Bit rate                                 : 7 688 Kbps
Width                                    : 1 280 pixels
Height                                   : 720 pixels
Display aspect ratio                     : 16:9
Frame rate                               : 23.976 fps
Color space                              : YUV
Chroma subsampling                       : 4:2:0
Bit depth                                : 8 bits
Scan type                                : Progressive
Bits/(Pixel*Frame)                       : 0.348
Stream size                              : 5.11 GiB (77%)
Title                                    : www.club-hd.com
Writing library                          : x264 core 119 r2106 07efeb4
Language                                 : English
Default                                  : Yes
Forced                                   : No

Audio #1
ID                                       : 2
Format                                   : AC-3
Format/Info                              : Audio Coding 3
Mode extension                           : CM (complete main)
Muxing mode                              : Header stripping
Codec ID                                 : A_AC3
Duration                                 : 1h 35mn
Bit rate mode                            : Constant
Bit rate                                 : 640 Kbps
Channel(s)                               : 6 channels
Channel positions                        : Front: L C R, Side: L R, LFE
Sampling rate                            : 48.0 KHz
Bit depth                                : 16 bits
Compression mode                         : Lossy
Stream size                              : 436 MiB (6%)
Title                                    : www.club-hd.com  AC3 5.1
Language                                 : English
Default                                  : Yes
Forced                                   : No

Audio #2
ID                                       : 3
Format                                   : DTS
Format/Info                              : Digital Theater Systems
Muxing mode                              : Header stripping
Codec ID                                 : A_DTS
Duration                                 : 1h 35mn
Bit rate mode                            : Constant
Bit rate                                 : 1 510 Kbps
Channel(s)                               : 6 channels
Channel positions                        : Front: L C R, Side: L R, LFE
Sampling rate                            : 48.0 KHz
Bit depth                                : 24 bits
Compression mode                         : Lossy
Stream size                              : 1.00 GiB (15%)
Title                                    : www.club-hd.com  DTS 5.1
Language                                 : English
Default                                  : No
Forced                                   : No





Contraseña: www.club-hd.com






Descarga.png



MEGA.jpg

Tenemos TODO el material de Club-HD disponible por Mega, enlaces 100% activos y online hasta la fecha

Llévate tus cuentas Mega PRO III gratis con tu membresía VIP!
Todos los posts vivos con links de Mega.
Todo el material de Club-HD desbloqueado y sin publicidad.

Obtén más información sobre nuestras Membresías VIP



UPLOADED.TO_BANNER.png

Para ver este contenido oculto, debes dar click en el botón"Like", o cualquiera de las otras reacciones:

Me Gusta Me Gusta, Me Encanta Me Encanta, Jaja Jaja, Wow Wow, Triste Triste, Molesto Molesto
 
Última edición por un moderador:
Una vez más gracias Revolver21! y que viva el Rock maldita sea.
 
uffff de lujo men muchas gracias deberia de haber mas de estos aportes saludos
 
Uff, excelente... Muchisimas gracias... Que bueno esto... Saludos y descargando...
 
wow, el segundo mejor concierto de QUEEN en video, ya que el primero es el del estadio de Wembley en 1986, toda una joya que nos trae el buen amigo Revolver21, gracias....
 
Un gran gurpo y un gran aporte, muchas gracias

Desc_g_ EXCELENTE!!!

:aplausos:
aplausos.gif
:aplausos:
 
Volver