R2B: Soar into the sun (2012) 720p BDRip Audio Coreano [Subt. Esp] (Acción. Drama)

Maestro Revolver

Administrador
Registro
9 Ago 2012
Mensajes
3.157
Reacciones (ptje)
55.041


SoarIntotheSun.jpg




FichaTecnica.jpg


TÍTULO ORIGINAL: Al-too-bi: Riteon Too Beiseu - R2B: Riteontu Beyiseu (R2B: Return to Base) (Soar Into The Sun)
AÑO: 2012
DURACIÓN: 115 min.
PAÍS: Corea del Sur
DIRECTOR: Kim Dong-won
GUIÓN: Sang-hoon Ahn, Dong-won Kim
REPARTO: Rain, Jung Ji-Hoon, Shin Se-Kyung, Yu Jun-Sang, Lee Ha-Na, Kim Sung-Su, Lee Jong-Suk, Jung Suk-Won
PRODUCTORA: Zooomoney Entertainment / Red Muffler / CJ Entertainment
GÉNERO: Acción. Drama | Aviones. Remake
imdb-logo.png
: http://www.imdb.com/title/tt2253742/




Sinopsis.jpg


El futuro piloto de Corea del Sur del Elite Black Eagles Air Force, Tae-hun, se encuentra transferido a una unidad de combate de vuelo después de una demostración aérea no planificada y peligrosa. En el primer día de su traslado a la unidad F15K, conoce a Cheol-hui, de la unidad de Top Gun. Tae-hun es un espíritu libre, mientras que Cheol-hui, juega según las reglas, y los dos entran en conflicto casi de inmediato. Sin embargo, Tae-hun se hace rápidamente amigo de sus otros colegas: Dae-seo, Yu-jin y Seok-hyun. Él también se enamora de Se-yeong, quién es la encargada de mantenimiento. Tae-hun continúa con sus formas de espíritu libre y sus numeritos aéreos. El mundo fuera de la base interrumpe de golpe cuando un caza MIG de Corea del Norte se descubre en dirección al Sur. Tae-hun y el resto de compañeros se vuelven a poner en servicio activo, y una misión de reconocimiento se convierte en una lucha que empieza con la muerte prematura de Dae-seo y la desaparición de Seok-hyun. Finalmente Cheol-hui y Tae-hun llegan a un entendimiento emocional y la F15K hace los preparativos para detener una guerra y rescatar a un compañero desaparecido. Remake de la película Red Scarf (1963) de Shin Sang-ok.




Trailer.jpg






Capturas.jpg


1.jpg


2.jpg


3.jpg


4.jpg


5.jpg


6.jpg


La pelicula NO tiene ninguna marca... solo colocamos el nombre de esta web en las capturas




MediaInfo.jpg


Código:
General
Format                                   : Matroska
Format version                           : Version 2
File size                                : 3.66 GiB
Duration                                 : 1h 55mn
Overall bit rate                         : 4 537 Kbps
Movie name                               : www.club-hd.com
Encoded date                             : UTC 2013-06-03 22:16:18
Writing application                      : mkvmerge v5.7.0 ('The Whirlwind') built on Jul  8 2012 20:08:51
Writing library                          : libebml v1.2.3 + libmatroska v1.3.0

Video
ID                                       : 1
Format                                   : AVC
Format/Info                              : Advanced Video Codec
Format profile                           : [email protected]
Format settings, CABAC                   : Yes
Format settings, ReFrames                : 12 frames
Codec ID                                 : V_MPEG4/ISO/AVC
Duration                                 : 1h 55mn
Bit rate                                 : 4 100 Kbps
Width                                    : 1 280 pixels
Height                                   : 544 pixels
Display aspect ratio                     : 2.35:1
Frame rate mode                          : Constant
Frame rate                               : 23.976 fps
Color space                              : YUV
Chroma subsampling                       : 4:2:0
Bit depth                                : 8 bits
Scan type                                : Progressive
Bits/(Pixel*Frame)                       : 0.246
Stream size                              : 3.23 GiB (88%)
Title                                    : www.club-hd.com
Writing library                          : x264 core 129 r2230 1cffe9f
Language                                 : English
Default                                  : Yes
Forced                                   : No

Audio
ID                                       : 2
Format                                   : AC-3
Format/Info                              : Audio Coding 3
Mode extension                           : CM (complete main)
Format settings, Endianness              : Big
Codec ID                                 : A_AC3
Duration                                 : 1h 55mn
Bit rate mode                            : Constant
Bit rate                                 : 448 Kbps
Channel(s)                               : 6 channels
Channel positions                        : Front: L C R, Side: L R, LFE
Sampling rate                            : 48.0 KHz
Bit depth                                : 16 bits
Compression mode                         : Lossy
Stream size                              : 370 MiB (10%)
Title                                    : www.club-hd.com
Language                                 : Korean
Default                                  : Yes
Forced                                   : No

Text
ID                                       : 3
Format                                   : UTF-8
Codec ID                                 : S_TEXT/UTF8
Codec ID/Info                            : UTF-8 Plain Text
Language                                 : Spanish
Default                                  : Yes
Forced                                   : No




Descarga.jpg



MEGA.jpg

Tenemos TODO el material de Club-HD disponible por Mega, enlaces 100% activos y online hasta la fecha

Llévate tus cuentas Mega PRO III gratis con tu membresía VIP!
Todos los posts vivos con links de Mega.
Todo el material de Club-HD desbloqueado y sin publicidad.

Obtén más información sobre nuestras Membresías VIP



UPLOADED_BANNER.png

Para ver este contenido oculto, debes dar click en el botón"Like", o cualquiera de las otras reacciones:

Me Gusta Me Gusta, Me Encanta Me Encanta, Jaja Jaja, Wow Wow, Triste Triste, Molesto Molesto
 
Última edición por un moderador:
No se nada de la película, pero por los comentarios, me imagino debe ser buena.
Gracias
 
El cine coreano y japones xq no. No se quedan atras, hay muchas y buenas peliculas y esta es una de ellas.
Gracias Revolver por esta subida. Tb_up3:aplausos:
 
:llrnd2:Estoy emocionada...Gracias Masterrrrrrrrrrr, mil gracias.......QUE EMOCION!!!!!!!

:aplausos:MUCHAS GRACIAS!!!!. Solo yo se lo que esperaba esta movie jajaja....:dplgar:
Muy bien al fin, yo tambien se desde cuando la esperabas.:dplgar::)

Gracias Master por este excelente aporte. :aplausos: :aplausos::dplgar:
 
Se ve interesante Pnsand0, hay que verla Tb_up3, muchas gracias Revol! :aplausos:
 
Volver