Raging Bull (1980) 1080p BDRip Dual Latino-Inglés [Subt. Esp] (Drama)

Maestro Revolver

Well-known member
Miembro del Staff
Administrador
Registro
9 Ago 2012
Mensajes
3.569
Reacciones
59.346
Puntos
113

Reputation:


Aporte Recuperado gracias a nuestro amigo Dynky








TÍTULO ORIGINAL: Raging Bull
AÑO: 1980
DURACIÓN: 128 min.
PAÍS: USA
DIRECTOR: Martin Scorsese
GUIÓN: Paul Schrader & Mardik Martin
REPARTO: Robert De Niro, Cathy Moriarty, Joe Pesci, Frank Vincent, Nicholas Colasanto, Theresa Saldana, Mario Gallo, John Turturro, Frank Adonis, Martin Scorsese
PRODUCTORA: United Artists
GÉNERO: Drama | Biográfico. Deporte. Boxeo
: http://www.imdb.com/title/tt0081398/






Jake la Motta es un joven boxeador que se entrena duramente con la ayuda de su hermano y mánager Joey. Su sueño es convertirse en el campeón de los pesos medios. Pero Jake es un paranoico muy violento que descarga su agresividad tanto dentro como fuera del ring. Incluso su hermano es víctima de su enfermizo carácter. Cuando, por fin, alcanza el éxito, su vida se convierte en una pesadilla. Por un lado, su matrimonio marcha cada vez peor debido a sus contantes salidas nocturnas con otras mujeres; por otro, la mafia lo presiona para que amañe combates.
























La pelicula NO tiene ninguna marca... solo colocamos el nombre de esta web en las capturas






Código:
General
Format                                   : Matroska
Format version                           : Version 2
File size                                : 9.50 GiB
Duration                                 : 2h 9mn
Overall bit rate                         : 10.5 Mbps
Movie name                               : www.club-hd.com
Encoded date                             : UTC 2013-04-06 15:05:18
Writing application                      : mkvmerge v5.7.0 ('The Whirlwind') built on Jul  8 2012 20:08:51
Writing library                          : libebml v1.2.3 + libmatroska v1.3.0

Video
ID                                       : 1
Format                                   : AVC
Format/Info                              : Advanced Video Codec
Format profile                           : High@L4.1
Format settings, CABAC                   : Yes
Format settings, ReFrames                : 4 frames
Codec ID                                 : V_MPEG4/ISO/AVC
Duration                                 : 2h 9mn
Bit rate                                 : 8 193 Kbps
Width                                    : 1 920 pixels
Height                                   : 1 040 pixels
Display aspect ratio                     : 1.85:1
Frame rate mode                          : Constant
Frame rate                               : 23.976 fps
Color space                              : YUV
Chroma subsampling                       : 4:2:0
Bit depth                                : 8 bits
Scan type                                : Progressive
Bits/(Pixel*Frame)                       : 0.171
Stream size                              : 7.20 GiB (76%)
Title                                    : www.club-hd.com
Writing library                          : x264 core 66 r1088M 71ac0a3
Language                                 : English
Default                                  : Yes
Forced                                   : No

Audio #1
ID                                       : 2
Format                                   : AC-3
Format/Info                              : Audio Coding 3
Mode extension                           : CM (complete main)
Format settings, Endianness              : Big
Codec ID                                 : A_AC3
Duration                                 : 2h 9mn
Bit rate mode                            : Constant
Bit rate                                 : 192 Kbps
Channel(s)                               : 2 channels
Channel positions                        : Front: L R
Sampling rate                            : 48.0 KHz
Bit depth                                : 16 bits
Compression mode                         : Lossy
Delay relative to video                  : 200ms
Stream size                              : 177 MiB (2%)
Title                                    : www.club-hd.com  >>  Audio Latino AC3 2.0
Language                                 : Spanish
Default                                  : Yes
Forced                                   : No

Audio #2
ID                                       : 3
Format                                   : AC-3
Format/Info                              : Audio Coding 3
Mode extension                           : CM (complete main)
Format settings, Endianness              : Big
Codec ID                                 : A_AC3
Duration                                 : 2h 9mn
Bit rate mode                            : Constant
Bit rate                                 : 640 Kbps
Channel(s)                               : 6 channels
Channel positions                        : Front: L C R, Side: L R, LFE
Sampling rate                            : 48.0 KHz
Bit depth                                : 16 bits
Compression mode                         : Lossy
Stream size                              : 591 MiB (6%)
Title                                    : www.club-hd.com  >>  Inglés AC3 5.1
Language                                 : English
Default                                  : No
Forced                                   : No

Audio #3
ID                                       : 4
Format                                   : DTS
Format/Info                              : Digital Theater Systems
Mode                                     : 16
Format settings, Endianness              : Big
Codec ID                                 : A_DTS
Duration                                 : 2h 9mn
Bit rate mode                            : Constant
Bit rate                                 : 1 509 Kbps
Channel(s)                               : 6 channels
Channel positions                        : Front: L C R, Side: L R, LFE
Sampling rate                            : 48.0 KHz
Bit depth                                : 24 bits
Compression mode                         : Lossy
Stream size                              : 1.36 GiB (14%)
Title                                    : www.club-hd.com  >>  Inglés DTS 5.1
Language                                 : English
Default                                  : No
Forced                                   : No

Text
ID                                       : 5
Format                                   : UTF-8
Codec ID                                 : S_TEXT/UTF8
Codec ID/Info                            : UTF-8 Plain Text
Language                                 : Spanish
Default                                  : No
Forced                                   : No
















Enlaces de Mega y Fireload solo disponibles para Miembros VIP

Compra tu Membresía VIP y apoya a Club-HD!

ATENCIÓN! Tenemos TODO el material de Club-HD disponible por Mega y Fireload, enlaces 100% activos y online hasta la fecha

Llévate tus cuentas Mega PRO II gratis con tu membresía VIP!
Todos los posts vivos con links de Mega y Fireload.
Todo el material de Club-HD desbloqueado y sin publicidad.

Click Aquí para más información.


Para ver este contenido oculto, debes dar click en una de las siguientes reacciones : Like Like, Love Love, Haha Haha, Wow Wow, Sad Sad, Angry Angry


Para ver este contenido oculto, debes dar click en una de las siguientes reacciones : Like Like, Love Love, Haha Haha, Wow Wow, Sad Sad, Angry Angry
 
Última edición por un moderador:

Omar Herrera

Well-known member
Miembro del Staff
Súper Moderador
Registro
27 Ago 2012
Mensajes
1.234
Reacciones
325
Puntos
83
Edad
32
Ubicación
Managua

Reputation:

INCREIBLE PELICULA!!! Una leyenda del Cine este Robert De Niro! las peliculas en blanco y negro son geniales, no todas claro pero esta es de las mejores... Gran pedido el que se gasto MATE!!
Excelente Revolver, Gracias amigo, me espero a la version 720p para seguir con mi maniaca obsecion de coleccionar peliculas que nunca miro :crcjd: ... algun dia lo hare.
 

sharklui

Well-known member
Miembro VIP
Registro
28 Ago 2012
Mensajes
1.026
Reacciones
271
Puntos
83
Ubicación
The Matrix

Reputation:

Muchas gracias Revol, semejante reliquia del cine y en 1080 solo Club-HD nos lo tiene :aplausos:

Siempre con lo mejor, Bendiciones :LXR:
 

Ezze

Well-known member
Miembro del Staff
Súper Moderador
Registro
28 Ago 2012
Mensajes
1.663
Reacciones
1.790
Puntos
113
Ubicación
En la Torre de Observación

Reputation:

Pero que pedazo de reliquia!!! :dplgar: Muchas gracias Revolver por dejarnos esta espectacular película!! :aplausos: Saludos bye
 

Mate78

Ladron de mi cerebro
Miembro del Staff
Súper Moderador
Registro
27 Ago 2012
Mensajes
1.235
Reacciones
918
Puntos
113

Reputation:

Me estoy por largar a llorar , no puedo creer que la allas subido taaaaan rapido , muchisimas gracias R21 sos lo mas Nene !!!!!!!cl4pHurr4hd4nce2dance3_PRT:LXR::LXR:
 

edward1080

Well-known member
Registro
23 Nov 2012
Mensajes
1.013
Reacciones
137
Puntos
63
Edad
34

Reputation:

Que joya de película master Revolver, sin duda para tenerla en la colección....Muchas gracias!! :aplausos:
 

Fisher

Member
Registro
3 Sep 2012
Mensajes
274
Reacciones
12
Puntos
18

Reputation:

muchas Gracias Revolver21, me la llevo para la coleccion.

Exelente Actor, Exelente Director ;).

PD: yo no habia nacido todavia xDD :S
 

Nosferatu

Well-known member
Súper Moderador
Registro
31 Ago 2012
Mensajes
2.275
Reacciones
1.362
Puntos
113
Edad
44
Ubicación
Welcome to Hell!!

Reputation:

Muchas gracias por este clásico, película muy recomendable.:aplausos::aplausos::aplausos:
Muy buena esta película mi hermano mate.:dplgar:

Gracias Maestro R21!! :aplausos::aplausos::LXR::LXR:
 

zeystarr

New member
Registro
27 Ago 2012
Mensajes
451
Reacciones
12
Puntos
0
Edad
38

Reputation:

dicen que es muy buena esta pelicula la vere... muchas gracias amigos
 

Usuarios Que Están Viendo Este Tema (Total: 1, Miembros: 0, Invitados: 1)

Arriba