Red 2 (2013) 1080p BDRip Dual Latino-Inglés [Subt. Esp] (Acción. Comedia)

Maestro Revolver

Well-known member
Miembro del Staff
Administrador
Registro
9 Ago 2012
Mensajes
3.567








TÍTULO ORIGINAL: Red 2
AÑO: 2013
DURACIÓN: 116 min.
PAÍS: USA
DIRECTOR: Dean Parisot
GUIÓN: Erich Hoeber, Jon Hoeber (Cómic: Warren Ellis, Cully Hamner)
REPARTO: Bruce Willis, John Malkovich, Mary-Louise Parker, Helen Mirren, Byung-Hun Lee, Catherine Zeta-Jones, Anthony Hopkins, David Thewlis, Neal McDonough, Xavier Laurent, Jong Kun Lee, Garrick Hagon, Tim Pigott-Smith, Brian Cox, Philip Arditti, Mitchell Mullen, Martin Sims, Tristan D. Lalla, Khalid Laith, Tom Wu, David Papava, Emilio Doorgasingh, Dan Jeannotte, Aleksandar Mikic, Nathalie Buscombe
PRODUCTORA: Summit Entertainment / Di Bonaventura Pictures / DC Entertainment
GÉNERO: Acción. Comedia | Cómic. Secuela
: http://www.imdb.com/title/tt1821694/






El agente retirado de operaciones encubiertas la CIA, Frank Moses (Bruce Willis), vuelve a reunir a su peculiar equipo de élite para emprender la búsqueda a nivel global de un dispositivo nuclear portátil desaparecido. Por el camino tendrán que enfrentarse a un ejército de implacables asesinos, despiadados terroristas y oficiales del Gobierno enloquecidos por el poder; todos ansiosos por hacerse con un arma devastadora… y todos muy poco conscientes de lo que puede suponer enfrentarse al equipo de Retirados Extremadamente Peligrosos y sus tácticas de la vieja escuela.
























La pelicula NO tiene ninguna marca... solo colocamos el nombre de esta web en las capturas






Código:
General
Format                                   : Matroska
Format version                           : Version 2
File size                                : 8.77 GiB
Duration                                 : 1h 55mn
Overall bit rate                         : 10.8 Mbps
Movie name                               : www.club-hd.com
Encoded date                             : UTC 2013-11-16 14:29:45
Writing application                      : mkvmerge v5.7.0 ('The Whirlwind') built on Jul  8 2012 20:08:51
Writing library                          : libebml v1.2.3 + libmatroska v1.3.0

Video
ID                                       : 1
Format                                   : AVC
Format/Info                              : Advanced Video Codec
Format profile                           : High@L4.1
Format settings, CABAC                   : Yes
Format settings, ReFrames                : 5 frames
Codec ID                                 : V_MPEG4/ISO/AVC
Duration                                 : 1h 55mn
Bit rate                                 : 8 307 Kbps
Width                                    : 1 920 pixels
Height                                   : 800 pixels
Display aspect ratio                     : 2.40:1
Frame rate mode                          : Constant
Frame rate                               : 23.976 fps
Color space                              : YUV
Chroma subsampling                       : 4:2:0
Bit depth                                : 8 bits
Scan type                                : Progressive
Bits/(Pixel*Frame)                       : 0.226
Stream size                              : 6.54 GiB (75%)
Title                                    : www.club-hd.com
Writing library                          : x264 core 140 r2377 1ca7bb9
Language                                 : English
Default                                  : Yes
Forced                                   : No

Audio #1
ID                                       : 2
Format                                   : AC-3
Format/Info                              : Audio Coding 3
Mode extension                           : CM (complete main)
Format settings, Endianness              : Big
Codec ID                                 : A_AC3
Duration                                 : 1h 55mn
Bit rate mode                            : Constant
Bit rate                                 : 384 Kbps
Channel(s)                               : 6 channels
Channel positions                        : Front: L C R, Side: L R, LFE
Sampling rate                            : 48.0 KHz
Bit depth                                : 16 bits
Compression mode                         : Lossy
Stream size                              : 318 MiB (4%)
Title                                    : AC3
Language                                 : Spanish
Default                                  : Yes
Forced                                   : No

Audio #2
ID                                       : 3
Format                                   : AC-3
Format/Info                              : Audio Coding 3
Mode extension                           : CM (complete main)
Format settings, Endianness              : Big
Codec ID                                 : A_AC3
Duration                                 : 1h 55mn
Bit rate mode                            : Constant
Bit rate                                 : 640 Kbps
Channel(s)                               : 6 channels
Channel positions                        : Front: L C R, Side: L R, LFE
Sampling rate                            : 48.0 KHz
Bit depth                                : 16 bits
Compression mode                         : Lossy
Stream size                              : 530 MiB (6%)
Title                                    : AC3
Language                                 : English
Default                                  : No
Forced                                   : No

Audio #3
ID                                       : 4
Format                                   : DTS
Format/Info                              : Digital Theater Systems
Mode                                     : 16
Format settings, Endianness              : Big
Codec ID                                 : A_DTS
Duration                                 : 1h 55mn
Bit rate mode                            : Constant
Bit rate                                 : 1 509 Kbps
Channel(s)                               : 6 channels
Channel positions                        : Front: L C R, Side: L R, LFE
Sampling rate                            : 48.0 KHz
Bit depth                                : 24 bits
Compression mode                         : Lossy
Stream size                              : 1.22 GiB (14%)
Title                                    : DTS
Language                                 : English
Default                                  : No
Forced                                   : No

Text #1
ID                                       : 5
Format                                   : UTF-8
Codec ID                                 : S_TEXT/UTF8
Codec ID/Info                            : UTF-8 Plain Text
Title                                    : Forzados
Language                                 : Spanish
Default                                  : Yes
Forced                                   : No

Text #2
ID                                       : 6
Format                                   : UTF-8
Codec ID                                 : S_TEXT/UTF8
Codec ID/Info                            : UTF-8 Plain Text
Language                                 : Spanish
Default                                  : No
Forced                                   : No

Menu
00:00:00.000                             : en:00:00:00.000
00:08:31.094                             : en:00:08:31.094
00:15:02.193                             : en:00:15:02.193
00:21:30.497                             : en:00:21:30.497
00:28:33.337                             : en:00:28:33.337
00:39:50.888                             : en:00:39:50.888
00:47:24.425                             : en:00:47:24.425
00:54:32.561                             : en:00:54:32.561
01:00:21.326                             : en:01:00:21.326
01:07:47.021                             : en:01:07:47.021
01:11:48.804                             : en:01:11:48.804
01:18:52.770                             : en:01:18:52.770
01:23:16.283                             : en:01:23:16.283
01:28:01.067                             : en:01:28:01.067
01:35:52.455                             : en:01:35:52.455
01:41:44.306                             : en:01:41:44.306
01:45:24.026                             : en:01:45:24.026
01:46:59.913                             : en:01:46:59.913








Enlaces de Mega y Google Drive solo disponibles para Miembros VIP

Compra tu Membresía VIP y apoya a Club-HD!

ATENCIÓN! Tenemos TODO el material de Club-HD disponible por Mega y Google Drive, enlaces 100% activos y online hasta la fecha

Llévate tus cuentas Mega PRO III gratis con tu membresía VIP!
Todos los posts vivos con links de Mega y Google Drive.
Todo el material de Club-HD desbloqueado y sin publicidad.

Click Aquí para más información.



Para ver este contenido oculto, debes dar click en una de las siguientes reacciones : Like Like, Love Love, Haha Haha, Wow Wow, Sad Sad, Angry Angry

 
Última edición por un moderador:

Usuarios Que Están Viendo Este Tema (Total: 1, Miembros: 0, Invitados: 1)

Quién Leyó Este Tema (Total Miembros: 2)

Arriba