Red (2010) m-720p BDRip Dual Latino-Inglés [Subt. Esp] (Acción. Comedia)

Maestro Revolver

Administrador
Registro
9 Ago 2012
Mensajes
3.157
Reacciones (ptje)
54.885


RED.jpg




FichaTecnica.jpg


TÍTULO ORIGINAL: Red
AÑO: 2010
DURACIÓN: 111 min.
PAÍS: USA
DIRECTOR: Robert Schwentke
GUIÓN: Jon Hoeber, Erich Hoeber (Cómic: Warren Ellis)
REPARTO: Bruce Willis, John Malkovich, Morgan Freeman, Helen Mirren, Karl Urban, Mary-Louise Parker, Brian Cox, Richard Dreyfuss, Rebecca Pidgeon, Ernest Borgnine, James Remar, Julian McMahon
PRODUCTORA: Di Bonaventura Pictures / Summit Entertainment
GÉNERO: Acción. Comedia | Cómic
imdb-logo.png
: http://www.imdb.com/title/tt1245526/


Premios: 2010: Globos de Oro: Nominada a la mejor película comedia/musical
2010: Nominada a Critics' Choice Awards: Mejor película de acción




Sinopsis.jpg


Frank (Bruce Willis), Joe (Morgan Freeman), Marvin (John Malkovich) y Victoria (Helen Mirren) son agentes especiales ya retirados, a los que la nueva administración de Washington desea ver muertos. El motivo: eran los mejores agentes de la CIA, pero saben demasiado. Adaptación del cómic de Warren Ellis.




Trailer.jpg






Capturas.jpg


1.jpg


2.jpg


3.jpg


4.jpg


5.jpg


6.jpg


La pelicula NO tiene ninguna marca... solo colocamos el nombre de esta web en las capturas




MediaInfo.jpg


Código:
General
Format                                   : Matroska
Format version                           : Version 2
File size                                : 3.16 GiB
Duration                                 : 1h 51mn
Overall bit rate                         : 4 076 Kbps
Movie name                               : www.club-hd.com
Encoded date                             : UTC 2013-08-03 15:38:39
Writing application                      : mkvmerge v5.7.0 ('The Whirlwind') built on Jul  8 2012 20:08:51
Writing library                          : libebml v1.2.3 + libmatroska v1.3.0

Video
ID                                       : 1
Format                                   : AVC
Format/Info                              : Advanced Video Codec
Format profile                           : [email protected]
Format settings, CABAC                   : Yes
Format settings, ReFrames                : 9 frames
Codec ID                                 : V_MPEG4/ISO/AVC
Duration                                 : 1h 51mn
Bit rate                                 : 3 099 Kbps
Width                                    : 1 280 pixels
Height                                   : 528 pixels
Display aspect ratio                     : 2.40:1
Frame rate mode                          : Constant
Frame rate                               : 23.976 fps
Color space                              : YUV
Chroma subsampling                       : 4:2:0
Bit depth                                : 8 bits
Scan type                                : Progressive
Bits/(Pixel*Frame)                       : 0.191
Stream size                              : 2.41 GiB (76%)
Title                                    : www.club-hd.com
Writing library                          : x264 core 136 r2348+704+51 d1baef6 tMod [8-bit@all X86]
Language                                 : English
Default                                  : Yes
Forced                                   : No

Audio #1
ID                                       : 2
Format                                   : AC-3
Format/Info                              : Audio Coding 3
Mode extension                           : CM (complete main)
Format settings, Endianness              : Big
Codec ID                                 : A_AC3
Duration                                 : 1h 51mn
Bit rate mode                            : Constant
Bit rate                                 : 448 Kbps
Channel(s)                               : 6 channels
Channel positions                        : Front: L C R, Side: L R, LFE
Sampling rate                            : 48.0 KHz
Bit depth                                : 16 bits
Compression mode                         : Lossy
Stream size                              : 356 MiB (11%)
Title                                    : www.club-hd.com  >>  Latino
Language                                 : Spanish
Default                                  : Yes
Forced                                   : No

Audio #2
ID                                       : 3
Format                                   : AC-3
Format/Info                              : Audio Coding 3
Mode extension                           : CM (complete main)
Format settings, Endianness              : Big
Codec ID                                 : A_AC3
Duration                                 : 1h 51mn
Bit rate mode                            : Constant
Bit rate                                 : 448 Kbps
Channel(s)                               : 6 channels
Channel positions                        : Front: L C R, Side: L R, LFE
Sampling rate                            : 48.0 KHz
Bit depth                                : 16 bits
Compression mode                         : Lossy
Stream size                              : 356 MiB (11%)
Title                                    : www.club-hd.com  >>  Inglés
Language                                 : English
Default                                  : No
Forced                                   : No

Text
ID                                       : 4
Format                                   : UTF-8
Codec ID                                 : S_TEXT/UTF8
Codec ID/Info                            : UTF-8 Plain Text
Language                                 : Spanish
Default                                  : No
Forced                                   : No

Menu
00:00:00.000                             : en:00:00:00.000
00:07:11.264                             : en:00:07:11.264
00:14:03.426                             : en:00:14:03.426
00:20:53.461                             : en:00:20:53.461
00:24:06.570                             : en:00:24:06.570
00:29:10.457                             : en:00:29:10.457
00:35:56.571                             : en:00:35:56.571
00:43:26.687                             : en:00:43:26.687
00:49:12.533                             : en:00:49:12.533
00:55:56.937                             : en:00:55:56.937
01:03:12.122                             : en:01:03:12.122
01:09:42.011                             : en:01:09:42.011
01:15:24.270                             : en:01:15:24.270
01:20:52.181                             : en:01:20:52.181
01:27:14.104                             : en:01:27:14.104
01:33:04.788                             : en:01:33:04.788
01:38:31.906                             : en:01:38:31.906
01:43:16.649                             : en:01:43:16.649




Descarga.jpg



MEGA.jpg

Tenemos TODO el material de Club-HD disponible por Mega, enlaces 100% activos y online hasta la fecha

Llévate tus cuentas Mega PRO III gratis con tu membresía VIP!
Todos los posts vivos con links de Mega.
Todo el material de Club-HD desbloqueado y sin publicidad.

Obtén más información sobre nuestras Membresías VIP



UPLOADED_BANNER.png

Para ver este contenido oculto, debes dar click en el botón"Like", o cualquiera de las otras reacciones:

Me Gusta Me Gusta, Me Encanta Me Encanta, Jaja Jaja, Wow Wow, Triste Triste, Molesto Molesto
 
Última edición por un moderador:
Muy buena esta película, no me canso de verla
 
EXCELENTE Pl4yb0y
Tenía ganas de ir mañana al Cine a ver la 2, que se estreno este jueves
Sin duda me voy a dar una previa con esta.
Mil gracias :aplausos: :aplausos: :aplausos: :aplausos: :aplausos: :aplausos: ...................... 994:aplausos:
Desc_g_
 
Última edición:
Volver