• Buenos dias amigos del club. Les queremos avisar que ya recuperamos el acceso a las webs de las Membresías VIP y del Paste. Asi que ya pueden comprar sus membresías y descargar todos los estrenos nuevamente.

Red Cliff (2008) 1080p BDRip Audio Chino [Subt. Esp] (Bélico. Acción)

Maestro Revolver

Administrador
Registro
9 Ago 2012
Mensajes
3.157
Reacciones (ptje)
55.343


Red-Cliff-1080p.jpg




FichaTecnica.jpg


TÍTULO ORIGINAL: Chi Bi (The Battle of Red Cliff)
AÑO: 2008
DURACIÓN: 140 min.
PAÍS: China
DIRECTOR: John Woo
GUIÓN: Khan Chan, Cheng Kuo, Heyu Sheng, John Woo (Novela: Guanzhong Luo)
REPARTO: Tony Leung Chiu Wai, Zhao Wei, Takeshi Kaneshiro, Chang Chen, Shido Nakamura, Zhang Fangyi, Hu Jun, Lin Chi-ling
PRODUCTORA: China Film Group
GÉNERO: Bélico. Acción. Aventuras. Drama | Histórico. Cine épico
imdb-logo.png
: http://www.imdb.com/title/tt0425637/

Premios: 2009: Nominada a Critics' Choice Awards: Mejor película de habla no inglesa
2009: Asociación de Críticos de Chicago: Nominada a Mejor película extranjera




Sinopsis.jpg


Adaptación de una de las obras más importantes de la literatura china: "El romance de los Tres Reinos". Esta cinta sólo ha sido estrenada en China y en varios festivales. La versión estrenada en Occidente es la llamada "versión internacional" que cuenta con su propia ficha independiente.

En China, hacia el final de la Dinastía Han (208 d.C.) Cao Cao, el temible Primer Ministro (y gobernante de facto) convence al veleidoso Emperador Han de que declare la guerra a los reinos de Xu, al oeste y al este, y al reino de Wu, al sur. Su objetivo, según dice, es la unificar China por el bien del país, pero, en realidad, sus motivos son bastante más egoístas. Tras convencer al Emperador, Cao Cao lleva a su ejército de casi un millón de soldados a la guerra. Su primer objetivo es el Reino de Xu, de reciente creación, gobernado por el benevolente líder Liu Bei. Al llegar al Reino de Xu, las fuerzas de Cao Cao, superiores numéricamente, derrotan fácilmente al ejército de Liu Bei. Los ciudadanos de Xu huyen bajo la protección de las tropas de Liu Bei y de sus dos generales de mayor rango (y hermanos de sangre): Guan Yu y Zhang Fei, que se quedan atrás a riesgo de sus propias vidas para salvar a los campesinos que intentan escapar...

Red Cliff es un díptico formado por dos películas en su versión original, Chi Bi (2008) y Chi bi xia: Jue zhan tian xia (2009), sumando entre ambas aproximadamente 280 minutos, y conformando el proyecto cinematográfico de mayor presupuesto jamás realizado en China. Para su comercialización en occidente, se ha optado por realizar un montaje alternativo y crear una única película de 148 minutos de duración, una "edición internacional" que añade una descripción mediante voz en off para situar al espectador en el conflicto (omitiendo las escenas de los films originales) a lo largo de diez minutos. Se han eliminado además detalles sobre algunos personajes, como las motivaciones de Zhuge Liang para robar las 100.000 flechas, partes de la infiltración de Sung Shangxiang o todas las secuencias de la caza del tigre. Esta versión es la que se emitirá en los cines de todos los territorios occidentales, si bien el díptico original se encuentra editado en China en dos partes en DVD.




Trailer.jpg






Capturas.jpg


1.jpg


2.jpg


3.jpg


4.jpg


5.jpg


6.jpg


La pelicula NO tiene ninguna marca... solo colocamos el nombre de esta web en las capturas




MediaInfo.jpg


Código:
General
Format                                   : Matroska
Format version                           : Version 2
File size                                : 14.4 GiB
Duration                                 : 2h 25mn
Overall bit rate                         : 14.1 Mbps
Movie name                               : www.club-hd.com
Encoded date                             : UTC 2013-12-12 19:29:59
Writing application                      : mkvmerge v5.7.0 ('The Whirlwind') built on Jul  8 2012 20:08:51
Writing library                          : libebml v1.2.3 + libmatroska v1.3.0

Video
ID                                       : 1
Format                                   : AVC
Format/Info                              : Advanced Video Codec
Format profile                           : [email protected]
Format settings, CABAC                   : Yes
Format settings, ReFrames                : 4 frames
Codec ID                                 : V_MPEG4/ISO/AVC
Duration                                 : 2h 25mn
Bit rate                                 : 12.0 Mbps
Width                                    : 1 916 pixels
Height                                   : 1 080 pixels
Display aspect ratio                     : 16:9
Frame rate mode                          : Constant
Frame rate                               : 24.000 fps
Color space                              : YUV
Chroma subsampling                       : 4:2:0
Bit depth                                : 8 bits
Scan type                                : Progressive
Bits/(Pixel*Frame)                       : 0.242
Stream size                              : 11.9 GiB (83%)
Title                                    : www.club-hd.com
Writing library                          : x264 core 80 r1376M 3feaec2
Language                                 : Chinese
Default                                  : Yes
Forced                                   : No

Audio #1
ID                                       : 2
Format                                   : DTS
Format/Info                              : Digital Theater Systems
Mode                                     : 16
Format settings, Endianness              : Big
Codec ID                                 : A_DTS
Duration                                 : 2h 25mn
Bit rate mode                            : Constant
Bit rate                                 : 1 509 Kbps
Channel(s)                               : 6 channels
Channel positions                        : Front: L C R, Side: L R, LFE
Sampling rate                            : 48.0 KHz
Bit depth                                : 24 bits
Compression mode                         : Lossy
Stream size                              : 1.53 GiB (11%)
Title                                    : www.club-hd.com  >>  DTS
Language                                 : Chinese
Default                                  : Yes
Forced                                   : No

Audio #2
ID                                       : 3
Format                                   : AC-3
Format/Info                              : Audio Coding 3
Mode extension                           : CM (complete main)
Format settings, Endianness              : Big
Codec ID                                 : A_AC3
Duration                                 : 2h 25mn
Bit rate mode                            : Constant
Bit rate                                 : 640 Kbps
Channel(s)                               : 6 channels
Channel positions                        : Front: L C R, Side: L R, LFE
Sampling rate                            : 48.0 KHz
Bit depth                                : 16 bits
Compression mode                         : Lossy
Stream size                              : 665 MiB (5%)
Title                                    : www.club-hd.com  >>  AC3
Language                                 : Chinese
Default                                  : No
Forced                                   : No

Text
ID                                       : 4
Format                                   : UTF-8
Codec ID                                 : S_TEXT/UTF8
Codec ID/Info                            : UTF-8 Plain Text
Language                                 : Spanish
Default                                  : Yes
Forced                                   : No

Menu
00:00:00.000                             : :00:00:00.000
00:02:46.792                             : :00:02:46.792
00:13:40.167                             : :00:13:40.167
00:23:41.208                             : :00:23:41.208
00:32:14.000                             : :00:32:14.000
00:43:44.042                             : :00:43:44.042
00:53:45.833                             : :00:53:45.833
01:03:46.458                             : :01:03:46.458
01:13:23.333                             : :01:13:23.333
01:23:29.875                             : :01:23:29.875
01:32:59.917                             : :01:32:59.917
01:43:10.625                             : :01:43:10.625
01:53:54.542                             : :01:53:54.542
02:06:24.875                             : :02:06:24.875
02:18:13.625                             : :02:18:13.625




Descarga.jpg



MEGA.jpg

Tenemos TODO el material de Club-HD disponible por Mega, enlaces 100% activos y online hasta la fecha

Llévate tus cuentas Mega PRO III gratis con tu membresía VIP!
Todos los posts vivos con links de Mega.
Todo el material de Club-HD desbloqueado y sin publicidad.

Obtén más información sobre nuestras Membresías VIP



1FICHIER-VIP.png

Tenemos TODO el material de Club-HD disponible por Mega, enlaces 100% activos y online hasta la fecha

Llévate tus cuentas Mega PRO III gratis con tu membresía VIP!
Todos los posts vivos con links de Mega.
Todo el material de Club-HD desbloqueado y sin publicidad.

Obtén más información sobre nuestras Membresías VIP



UPLOADED_BANNER.png

Para ver este contenido oculto, debes dar click en el botón"Like", o cualquiera de las otras reacciones:

Me Gusta Me Gusta, Me Encanta Me Encanta, Jaja Jaja, Wow Wow, Triste Triste, Molesto Molesto


OPENLOAD.png

Para ver este contenido oculto, debes dar click en el botón"Like", o cualquiera de las otras reacciones:

Me Gusta Me Gusta, Me Encanta Me Encanta, Jaja Jaja, Wow Wow, Triste Triste, Molesto Molesto

 
Última edición por un moderador:
Cine epico Chino, creo la mejor movie basada en hechos reales de las cuales se destaco la mayor estrategia de guerra en la historia de tantas batallas por la conquista de este inmenso territorio.

Excelente Boss te pasaste...Gracias por otro pedido mas....:aplausos:Pl4yb0y
MUCHAS GRACIAS
 
Si Clau dice que está buena, habrá que descargarla xD Muchas gracias Revolver :aplausos: Saludos bye
 
pues siempre esta versión son de mis favoritas y esta película vale su peso en oro gracias bestia
 
Gracias Men Excelente Aporte :aplausos: :aplausos: Tb_up3 Tb_up3 :dplgar: :dplgar: Tb_up3 Desc_g_ Tb_up3 :dplgar: :dplgar: Tb_up3 Tb_up3 :aplausos: :aplausos:
 
Bueno siempre en la mejor calidad!!! Habra que ver esta peli ya que parece buena. Gracias groso!!! :dplgar:
 
Exelentisimo aporte, muy buena movie :LXR::LXR::LXR::LXR::LXR:.Gracias por subirla en esta calidad. Saludos
 
Volver