Red Dawn (2012) m-720p Dual Latino-Inglés [Subt. Esp-Ing] (Acción. Bélico. Ciencia ficción)

Maestro Revolver

Well-known member
Miembro del Staff
Administrador
Registro
9 Ago 2012
Mensajes
3.567








TÍTULO ORIGINAL: Red Dawn
AÑO: 2012
DURACIÓN: 93 min.
PAÍS: USA
DIRECTOR: Dan Bradley
GUIÓN: Carl Ellsworth, Jeremy Passmore (Remake: Kevin Reynolds, John Milius)
REPARTO: Chris Hemsworth, Adrianne Palicki, Josh Hutcherson, Josh Peck, Isabel Lucas, Jeffrey Dean Morgan, Connor Cruise, Edwin Hodge, Alyssa Diaz, Brett Cullen, Michael Beach, Will Yun Lee, Matt Gerald, Kenneth Choi, Ron Yuan
PRODUCTORA: Contrafilm / Vincent Newman Entertainment
GÉNERO: Acción. Bélico. Ciencia ficción | Remake
: http://www.imdb.com/title/tt1234719/






Relata la historia de un grupo de muchachos que crean un grupo rebelde en su pueblo para así enfrentarse a los soldados rusos y chinos que han invadido los Estados Unidos.
Remake del clásico de culto de 1984, 'Amanecer rojo'.
























La pelicula NO tiene ninguna marca... solo colocamos el nombre de esta web en las capturas






Código:
General
Format                                   : Matroska
Format version                           : Version 2
File size                                : 2.49 GiB
Duration                                 : 1h 33mn
Overall bit rate                         : 3 820 Kbps
Movie name                               : www.club-hd.com
Encoded date                             : UTC 2013-03-10 22:34:14
Writing application                      : mkvmerge v5.7.0 ('The Whirlwind') built on Jul  8 2012 20:08:51
Writing library                          : libebml v1.2.3 + libmatroska v1.3.0

Video
ID                                       : 1
Format                                   : AVC
Format/Info                              : Advanced Video Codec
Format profile                           : High@L4.1
Format settings, CABAC                   : Yes
Format settings, ReFrames                : 6 frames
Codec ID                                 : V_MPEG4/ISO/AVC
Duration                                 : 1h 33mn
Bit rate                                 : 3 000 Kbps
Width                                    : 1 280 pixels
Height                                   : 534 pixels
Display aspect ratio                     : 2.40:1
Frame rate mode                          : Constant
Frame rate                               : 23.976 fps
Color space                              : YUV
Chroma subsampling                       : 4:2:0
Bit depth                                : 8 bits
Scan type                                : Progressive
Bits/(Pixel*Frame)                       : 0.183
Stream size                              : 1.90 GiB (76%)
Title                                    : www.club-hd.com
Writing library                          : x264 core 129 r2245 bc13772
Language                                 : English
Default                                  : Yes
Forced                                   : No

Audio #1
ID                                       : 2
Format                                   : AC-3
Format/Info                              : Audio Coding 3
Mode extension                           : CM (complete main)
Format settings, Endianness              : Big
Codec ID                                 : A_AC3
Duration                                 : 1h 33mn
Bit rate mode                            : Constant
Bit rate                                 : 192 Kbps
Channel(s)                               : 2 channels
Channel positions                        : Front: L R
Sampling rate                            : 48.0 KHz
Bit depth                                : 16 bits
Compression mode                         : Lossy
Stream size                              : 128 MiB (5%)
Title                                    : www.club-hd.com  >>  Latino
Language                                 : Spanish
Default                                  : Yes
Forced                                   : No

Audio #2
ID                                       : 3
Format                                   : AC-3
Format/Info                              : Audio Coding 3
Mode extension                           : CM (complete main)
Format settings, Endianness              : Big
Codec ID                                 : A_AC3
Duration                                 : 1h 33mn
Bit rate mode                            : Constant
Bit rate                                 : 640 Kbps
Channel(s)                               : 6 channels
Channel positions                        : Front: L C R, Side: L R, LFE
Sampling rate                            : 48.0 KHz
Bit depth                                : 16 bits
Compression mode                         : Lossy
Stream size                              : 427 MiB (17%)
Title                                    : www.club-hd.com  >>  Inglés
Language                                 : English
Default                                  : No
Forced                                   : No

Text #1
ID                                       : 4
Format                                   : UTF-8
Codec ID                                 : S_TEXT/UTF8
Codec ID/Info                            : UTF-8 Plain Text
Title                                    : Forzados
Language                                 : Spanish
Default                                  : Yes
Forced                                   : No

Text #2
ID                                       : 5
Format                                   : UTF-8
Codec ID                                 : S_TEXT/UTF8
Codec ID/Info                            : UTF-8 Plain Text
Language                                 : Spanish
Default                                  : No
Forced                                   : No

Text #3
ID                                       : 6
Format                                   : UTF-8
Codec ID                                 : S_TEXT/UTF8
Codec ID/Info                            : UTF-8 Plain Text
Language                                 : English
Default                                  : No
Forced                                   : No










Enlaces de Mega y Google Drive solo disponibles para Miembros VIP

Compra tu Membresía VIP y apoya a Club-HD!

ATENCIÓN! Tenemos TODO el material de Club-HD disponible por Mega y Google Drive, enlaces 100% activos y online hasta la fecha

Llévate tus cuentas Mega PRO III gratis con tu membresía VIP!
Todos los posts vivos con links de Mega y Google Drive.
Todo el material de Club-HD desbloqueado y sin publicidad.

Click Aquí para más información.




Enlaces de Mega y Google Drive solo disponibles para Miembros VIP

Compra tu Membresía VIP y apoya a Club-HD!

ATENCIÓN! Tenemos TODO el material de Club-HD disponible por Mega y Google Drive, enlaces 100% activos y online hasta la fecha

Llévate tus cuentas Mega PRO III gratis con tu membresía VIP!
Todos los posts vivos con links de Mega y Google Drive.
Todo el material de Club-HD desbloqueado y sin publicidad.

Click Aquí para más información.



Para ver este contenido oculto, debes dar click en una de las siguientes reacciones : Like Like, Love Love, Haha Haha, Wow Wow, Sad Sad, Angry Angry

 
Última edición por un moderador:

freaked

Active member
Registro
27 Ago 2012
Mensajes
677
Re: Red Dawn (2012) m-720p Dual Latino-Francés [Subt. Esp-Ing] (Acción. Bélico. Ciencia ficción)

Desc_g_ gracias
 

Ezze

Well-known member
Miembro del Staff
Súper Moderador
Miembro VIP
Registro
28 Ago 2012
Mensajes
1.666
Ubicación
En la Torre de Observación
Re: Red Dawn (2012) m-720p Dual Latino-Francés [Subt. Esp-Ing] (Acción. Bélico. Ciencia ficción)

:dplgar: Me llevo esta versión dual para verla mañana. Muchas gracias bro... como siempre lo mejor del HD. Saludos bye
 

Lantach

New member
Registro
28 Ago 2012
Mensajes
122
Edad
48
Re: Red Dawn (2012) m-720p Dual Latino-Francés [Subt. Esp-Ing] (Acción. Bélico. Ciencia ficción)

Desc_g_
 

gregper

New member
Registro
28 Ago 2012
Mensajes
406
Edad
39
Ubicación
Venezuela, Estado Zulia
Re: Red Dawn (2012) m-720p Dual Latino-Francés [Subt. Esp-Ing] (Acción. Bélico. Ciencia ficción)

Gracias Maestro... Excelente aporte como todos los que hacen... Sigan así, ésta página es la mejor! Saludos y Exitos! :aplausos:
 

Israel The IPM

Well-known member
Registro
31 Ago 2012
Mensajes
1.008
Edad
36
Re: Red Dawn (2012) m-720p Dual Latino-Francés [Subt. Esp-Ing] (Acción. Bélico. Ciencia ficción)

Gracias Men Excelente Aporte Desc_g_ :aplausos:
 

RESIDENT_EVIL

Well-known member
Miembro VIP
Registro
28 Ago 2012
Mensajes
1.466
Re: Red Dawn (2012) m-720p Dual Latino-Francés [Subt. Esp-Ing] (Acción. Bélico. Ciencia ficción)

muy bueno bajando
 

Mir_ru

Active member
Registro
28 Ago 2012
Mensajes
1.327
Ubicación
DF
Re: Red Dawn (2012) m-720p Dual Latino-Francés [Subt. Esp-Ing] (Acción. Bélico. Ciencia ficción)

Gracias!
 

zacygal

Well-known member
Registro
3 Sep 2012
Mensajes
1.515
Edad
50
Re: Red Dawn (2012) m-720p Dual Latino-Francés [Subt. Esp-Ing] (Acción. Bélico. Ciencia ficción)

bastante accion grax la speraba en Dual ...
 

ulisesbretana

Member
Registro
27 Ago 2012
Mensajes
496
Re: Red Dawn (2012) m-720p Dual Latino-Francés [Subt. Esp-Ing] (Acción. Bélico. Ciencia ficción)

Desc_g_:aplausos:
 

trailblazer 2.0

Well-known member
Miembro del Staff
Súper Moderador
Registro
28 Ago 2012
Mensajes
2.787
Ubicación
Ciudad Macross
Re: Red Dawn (2012) m-720p Dual Latino-Francés [Subt. Esp-Ing] (Acción. Bélico. Ciencia ficción)

gracias master, me quedo con esta en dual
 

Elvito

New member
Registro
18 Nov 2012
Mensajes
142
Re: Red Dawn (2012) m-720p Dual Latino-Francés [Subt. Esp-Ing] (Acción. Bélico. Ciencia ficción)

gracias
 

Bankai

Active member
Colaborador
Miembro VIP
Registro
28 Ago 2012
Mensajes
739
Re: Red Dawn (2012) m-720p Dual Latino-Francés [Subt. Esp-Ing] (Acción. Bélico. Ciencia ficción)

gracias r21 buena
 

manuelpareles

New member
Registro
21 Sep 2012
Mensajes
196
Edad
52
Re: Red Dawn (2012) m-720p Dual Latino-Francés [Subt. Esp-Ing] (Acción. Bélico. Ciencia ficción)

Muy buena pelicula
 

FILI19

Member
Registro
30 Ago 2012
Mensajes
899
Re: Red Dawn (2012) m-720p Dual Latino-Francés [Subt. Esp-Ing] (Acción. Bélico. Ciencia ficción)

Desc_g_
 

Limberth1

Member
Registro
29 Ago 2012
Mensajes
815
Edad
34
Re: Red Dawn (2012) m-720p Dual Latino-Francés [Subt. Esp-Ing] (Acción. Bélico. Ciencia ficción)

Gracias
 

edward osorio

Active member
Registro
28 Ago 2012
Mensajes
587
Edad
51
Re: Red Dawn (2012) m-720p Dual Latino-Francés [Subt. Esp-Ing] (Acción. Bélico. Ciencia ficción)

gracias por la pelicula
 

djpadrino

Member
Registro
29 Ago 2012
Mensajes
280
Re: Red Dawn (2012) m-720p Dual Latino-Francés [Subt. Esp-Ing] (Acción. Bélico. Ciencia ficción)

Desc_g_
 

greenwoodiana

Well-known member
Registro
27 Ago 2012
Mensajes
3.105
Re: Red Dawn (2012) m-720p Dual Latino-Francés [Subt. Esp-Ing] (Acción. Bélico. Ciencia ficción)

Desc_g_
 

Usuarios Que Están Viendo Este Tema (Total: 1, Miembros: 0, Invitados: 1)

Quién Leyó Este Tema (Total Miembros: 4)

Arriba