• Buenos dias amigos del club. Les queremos avisar que ya recuperamos el acceso a las webs de las Membresías VIP y del Paste. Asi que ya pueden comprar sus membresías y descargar todos los estrenos nuevamente.

Return of the Living Dead Part II (1988) 720p WEB-DL Dual Latino-Inglés [Subt. Esp] (Terror. Comedia)

Maestro Revolver

Administrador
Registro
9 Ago 2012
Mensajes
3.157
Reacciones (ptje)
55.322


Return-Of-The-Living-Dead-PartII.jpg




FichaTecnica.jpg


TÍTULO ORIGINAL: Return of the Living Dead Part II
AÑO: 1988
DURACIÓN: 89 min.
PAÍS: USA
DIRECTOR: Ken Wiederhorn
GUIÓN: Ken Wiederhorn
REPARTO: James Karen, Thom Matthews, Michael Kenworthy, Marsha Dietlien, Dana Ashbrook, Suzanne Snyder, Brian Peck, Thor Van Lingen
PRODUCTORA: Greenfox Productions
GÉNERO: Terror. Comedia. Ciencia ficción. Fantástico | Parodia. Comedia de terror. Zombis. Secuela
imdb-logo.png
: http://www.imdb.com/title/tt0095990/




Sinopsis.jpg


Unos misteriosos barriles caen de un camion del ejército cerca de un cementerio abandonado de un pequeño pueblo, donde unos chicos lo abren sin saber las consecuencias que ello concierne. Pues su contenido despertará a los muertos...




Trailer.jpg






Capturas.jpg


1.jpg


2.jpg


3.jpg


4.jpg


5.jpg


6.jpg


La pelicula NO tiene ninguna marca... solo colocamos el nombre de esta web en las capturas




MediaInfo.jpg


Código:
General
Format                                   : Matroska
Format version                           : Version 2
File size                                : 2.64 GiB
Duration                                 : 1h 29mn
Overall bit rate                         : 4 223 Kbps
Movie name                               : www.club-hd.com
Encoded date                             : UTC 2013-12-06 01:11:19
Writing application                      : mkvmerge v5.7.0 ('The Whirlwind') built on Jul  8 2012 20:08:51
Writing library                          : libebml v1.2.3 + libmatroska v1.3.0

Video
ID                                       : 1
Format                                   : AVC
Format/Info                              : Advanced Video Codec
Format profile                           : [email protected]
Format settings, CABAC                   : No
Format settings, ReFrames                : 2 frames
Format settings, GOP                     : N=1
Codec ID                                 : V_MPEG4/ISO/AVC
Duration                                 : 1h 29mn
Bit rate                                 : 3 755 Kbps
Width                                    : 1 272 pixels
Height                                   : 720 pixels
Display aspect ratio                     : 16:9
Frame rate mode                          : Constant
Frame rate                               : 23.976 fps
Color space                              : YUV
Chroma subsampling                       : 4:2:0
Bit depth                                : 8 bits
Scan type                                : Progressive
Bits/(Pixel*Frame)                       : 0.171
Stream size                              : 2.34 GiB (89%)
Title                                    : www.club-hd.com
Language                                 : English
Default                                  : Yes
Forced                                   : No
Color primaries                          : BT.709
Transfer characteristics                 : BT.709
Matrix coefficients                      : BT.709

Audio #1
ID                                       : 2
Format                                   : AC-3
Format/Info                              : Audio Coding 3
Mode extension                           : CM (complete main)
Format settings, Endianness              : Big
Codec ID                                 : A_AC3
Duration                                 : 1h 29mn
Bit rate mode                            : Constant
Bit rate                                 : 192 Kbps
Channel(s)                               : 2 channels
Channel positions                        : Front: L R
Sampling rate                            : 48.0 KHz
Bit depth                                : 16 bits
Compression mode                         : Lossy
Stream size                              : 123 MiB (5%)
Title                                    : www.club-hd.com  >>  Latino
Language                                 : Spanish
Default                                  : Yes
Forced                                   : No

Audio #2
ID                                       : 3
Format                                   : AC-3
Format/Info                              : Audio Coding 3
Mode extension                           : CM (complete main)
Format settings, Endianness              : Big
Codec ID                                 : A_AC3
Duration                                 : 1h 29mn
Bit rate mode                            : Constant
Bit rate                                 : 192 Kbps
Channel(s)                               : 2 channels
Channel positions                        : Front: L R
Sampling rate                            : 48.0 KHz
Bit depth                                : 16 bits
Compression mode                         : Lossy
Stream size                              : 123 MiB (5%)
Title                                    : www.club-hd.com  >>  Inglés
Language                                 : English
Default                                  : No
Forced                                   : No

Text
ID                                       : 4
Format                                   : UTF-8
Codec ID                                 : S_TEXT/UTF8
Codec ID/Info                            : UTF-8 Plain Text
Language                                 : Spanish
Default                                  : No
Forced                                   : No

Menu
00:00:00.000                             : en:Credits.
00:03:16.000                             : en:Finders keepers.
00:08:04.000                             : en:No respect for the dead.
00:11:48.000                             : en:Unholy smoke.
00:18:37.000                             : en:Slime time.
00:23:31.000                             : en:Out and about.
00:29:57.000                             : en:Calling for help.
00:34:16.000                             : en:Head trauma.
00:37:29.000                             : en:House party.
00:41:49.000                             : en:Family meal.
00:43:10.000                             : en:Hands off.
00:47:17.000                             : en:Where is everybody.
00:52:05.000                             : en:Armed and dead serious.
00:55:08.000                             : en:Not all together.
00:59:12.000                             : en:Ed, quit it.
01:02:44.000                             : en:Not into dead guys.
01:06:30.000                             : en:We'll give'em brains.
01:10:52.000                             : en:Chow time.
01:12:53.000                             : en:Gate crashers.
01:17:15.000                             : en:Jesse at the wheel.
01:20:24.000                             : en:Fried zombies.
01:24:12.000                             : en:You win.
01:25:32.000                             : en:End Credits.




Descarga.jpg



MEGA.jpg

Tenemos TODO el material de Club-HD disponible por Mega, enlaces 100% activos y online hasta la fecha

Llévate tus cuentas Mega PRO III gratis con tu membresía VIP!
Todos los posts vivos con links de Mega.
Todo el material de Club-HD desbloqueado y sin publicidad.

Obtén más información sobre nuestras Membresías VIP



UPLOADED_BANNER.png

Para ver este contenido oculto, debes dar click en el botón"Like", o cualquiera de las otras reacciones:

Me Gusta Me Gusta, Me Encanta Me Encanta, Jaja Jaja, Wow Wow, Triste Triste, Molesto Molesto
 
Última edición por un moderador:
Muchísimas gracias, tengo años de no verla, en serio son los mejores, un saludo
 
Muchisimas Gracias Revolver!!!


Soy un loco fanático de las películas de terror de los años 70s, 80s y algo de 90s y este tipo de pelis me hacen acordar a la época en que gastaba a mi querida videocassetera , que aunque no lo crean todavía funciona!!! Gracias por tantos recuerdos!!! Hurr4h

ani-bs_zombie.gif
 
la 1 me gusto mucho, muy buena clasica pelicula de zombies :D se agradece !!!!
 
Genial, no sabia que habia salido en latino en dvd o bluray, solo la habia visto asi por la tele. Son unos genios se re agradece. Desc_g_ Tb_up3
 
Volver