Riddick (2013) Theatrical Cut 1080p BDRip Dual Latino-Inglés [Subt. Esp] (Ciencia ficción. Acción)

Maestro Revolver

Administrador
Registro
9 Ago 2012
Mensajes
3.157
Reacciones (ptje)
54.925

Riddick-1080p-theatrical.jpg



FichaTecnica.jpg


TÍTULO ORIGINAL: Riddick
AÑO: 2013
DURACIÓN: 113 min.
PAÍS: USA
DIRECTOR: David Twohy
GUIÓN: David Twohy (Personajes: Jim Wheat, Ken Wheat)
REPARTO: Vin Diesel, Jordi Mollà, Matt Nable, Katee Sackhoff, Dave Bautista, Bokeem Woodbine, Raoul Trujillo, Karl Urban, Nolan Gerard Funk, Antoinette Kalaj, Keri Hilson
PRODUCTORA: Universal Pictures / One Race Productions
GÉNERO: Ciencia ficción. Acción | Supervivencia. Monstruos. Secuela
imdb-logo.png
: http://www.imdb.com/title/tt1411250/



Sinopsis.jpg


Traicionado por su propia especie y dado por muerto en un lejano y desolado planeta, aparentemente sin vida, el duro Riddick tendrá que luchar por la supervivencia contra depredadores alienígenas convirtiéndose en un ser más poderoso y peligroso que nunca.... Tercera entrega de la saga iniciada en "Pitch Black" y continuada en "Las crónicas de Riddick".



Trailer.jpg





Capturas.jpg


1.jpg


2.jpg


3.jpg


4.jpg


5.jpg


6.jpg


La pelicula NO tiene ninguna marca... solo colocamos el nombre de esta web en las capturas



MediaInfo.jpg


Código:
General
Format                                   : Matroska
Format version                           : Version 2
File size                                : 8.79 GiB
Duration                                 : 1h 58mn
Overall bit rate                         : 10.6 Mbps
Movie name                               : www.club-hd.com
Encoded date                             : UTC 2014-03-01 16:18:32
Writing application                      : mkvmerge v5.7.0 ('The Whirlwind') built on Jul  8 2012 20:08:51
Writing library                          : libebml v1.2.3 + libmatroska v1.3.0

Video
ID                                       : 1
Format                                   : AVC
Format/Info                              : Advanced Video Codec
Format profile                           : [email protected]
Format settings, CABAC                   : Yes
Format settings, ReFrames                : 5 frames
Muxing mode                              : Header stripping
Codec ID                                 : V_MPEG4/ISO/AVC
Duration                                 : 1h 58mn
Bit rate                                 : 8 068 Kbps
Width                                    : 1 920 pixels
Height                                   : 800 pixels
Display aspect ratio                     : 2.40:1
Frame rate mode                          : Constant
Frame rate                               : 23.976 fps
Color space                              : YUV
Chroma subsampling                       : 4:2:0
Bit depth                                : 8 bits
Scan type                                : Progressive
Bits/(Pixel*Frame)                       : 0.219
Stream size                              : 6.52 GiB (74%)
Title                                    : www.club-hd.com
Writing library                          : x264 core 142 r2389 956c8d8
Language                                 : English
Default                                  : Yes
Forced                                   : No

Audio #1
ID                                       : 2
Format                                   : AC-3
Format/Info                              : Audio Coding 3
Mode extension                           : CM (complete main)
Format settings, Endianness              : Big
Muxing mode                              : Header stripping
Codec ID                                 : A_AC3
Duration                                 : 1h 58mn
Bit rate mode                            : Constant
Bit rate                                 : 384 Kbps
Channel(s)                               : 6 channels
Channel positions                        : Front: L C R, Side: L R, LFE
Sampling rate                            : 48.0 KHz
Bit depth                                : 16 bits
Compression mode                         : Lossy
Stream size                              : 326 MiB (4%)
Title                                    : www.club-hd.com  >>  Latino AC3 5.1
Language                                 : Spanish
Default                                  : Yes
Forced                                   : No

Audio #2
ID                                       : 3
Format                                   : AC-3
Format/Info                              : Audio Coding 3
Mode extension                           : CM (complete main)
Format settings, Endianness              : Big
Muxing mode                              : Header stripping
Codec ID                                 : A_AC3
Duration                                 : 1h 58mn
Bit rate mode                            : Constant
Bit rate                                 : 640 Kbps
Channel(s)                               : 6 channels
Channel positions                        : Front: L C R, Side: L R, LFE
Sampling rate                            : 48.0 KHz
Bit depth                                : 16 bits
Compression mode                         : Lossy
Stream size                              : 544 MiB (6%)
Title                                    : www.club-hd.com  >>  Inglés AC3 5.1
Language                                 : English
Default                                  : No
Forced                                   : No

Audio #3
ID                                       : 4
Format                                   : DTS
Format/Info                              : Digital Theater Systems
Mode                                     : 16
Format settings, Endianness              : Big
Muxing mode                              : Header stripping
Codec ID                                 : A_DTS
Duration                                 : 1h 58mn
Bit rate mode                            : Constant
Bit rate                                 : 1 509 Kbps
Channel(s)                               : 6 channels
Channel positions                        : Front: L C R, Side: L R, LFE
Sampling rate                            : 48.0 KHz
Bit depth                                : 24 bits
Compression mode                         : Lossy
Stream size                              : 1.25 GiB (14%)
Title                                    : www.club-hd.com  >>  Inglés DTS 5.1
Language                                 : English
Default                                  : No
Forced                                   : No

Text
ID                                       : 5
Format                                   : UTF-8
Codec ID                                 : S_TEXT/UTF8
Codec ID/Info                            : UTF-8 Plain Text
Language                                 : Spanish
Default                                  : No
Forced                                   : No



Descarga.jpg



MEGA.jpg

Tenemos TODO el material de Club-HD disponible por Mega, enlaces 100% activos y online hasta la fecha

Llévate tus cuentas Mega PRO III gratis con tu membresía VIP!
Todos los posts vivos con links de Mega.
Todo el material de Club-HD desbloqueado y sin publicidad.

Obtén más información sobre nuestras Membresías VIP


UPLOADED_BANNER.png

Para ver este contenido oculto, debes dar click en el botón"Like", o cualquiera de las otras reacciones:

Me Gusta Me Gusta, Me Encanta Me Encanta, Jaja Jaja, Wow Wow, Triste Triste, Molesto Molesto
 
Última edición por un moderador:
estaba descargando las demas peliculas tranquilamente cuando de pronto veo el titulo y dije las demás películas pueden esperar esta no asi que me la descargo de 1
 
Muchisimas Gracias Revolver!!!!


Genio, Genio.......Barrilete Cósmico, de que Planeta Vinistes?!!! Ta, Ta, Ta, Gooooooooolllllllll!!!!!!!!! :aplausos::aplausos::aplausos:


Gracias por darnos tanto, Genio!!!! Tb_up3
 
Volver