Rihanna - Loud Tour Live at the O2 (2012) 720p BDRip [AC3 5.1] (Concierto)

Maestro Revolver

Administrador
Registro
9 Ago 2012
Mensajes
3.157
Reacciones (ptje)
55.202

Nueva-caratula-club-hd.jpg






SINOPSIS.png


El lanzamiento del álbum de Rihanna Rihanna Loud Unapologetic viene Gira Live At The 02! Esta versión contiene más de dos horas de contenido exclusivo con actuaciones de sus grandes éxitos y las interacciones posteriores etapas de su aparición en el 02 Arena de Londres durante la gira Loud. Realizar en más de 20 países de las Américas y Europa, la gira fue un éxito comercial, experimentando la demanda de una extensión de shows en el Reino Unido debido a la popularidad. El Tour Loud convirtió en el séptimo mayor gira taquillera de 2011.



Track List:

1. Only Girl (In the World)
2. Disturbia
3. Shut Up and Drive
4. Man Down
5. Darling Nikki
6. S&M
7. Skin
8. Raining Men
9. Hard
10. Breaking Dishes
11. Run This Town
12. Live Your Life
13. Unfaithful
14. Hate That I Love You
15. California King Bed
16. What's My Name
17. Rude Boy
18. Cheers (Drink to That)
19. Don't Stop the Music
20. Take a Bow
21. Love The Way You Lie
22. Umbrella
23. We Found Love




TRAILER.png






CAPTURAS.png


1.jpg


2.jpg


3.jpg


4.jpg


5.jpg


6.jpg





DATOS_TECNICOS.png


Código:
General
Format                                   : Matroska
Format version                           : Version 2
File size                                : 3.28 GiB
Duration                                 : 1h 49mn
Overall bit rate                         : 4 267 Kbps
Movie name                               : www.club-hd.com
Encoded date                             : UTC 2012-12-21 22:24:02
Writing application                      : mkvmerge v5.7.0 ('The Whirlwind') built on Jul  8 2012 20:08:51
Writing library                          : libebml v1.2.3 + libmatroska v1.3.0

Video
ID                                       : 1
Format                                   : AVC
Format/Info                              : Advanced Video Codec
Format profile                           : [email protected]
Format settings, CABAC                   : Yes
Format settings, ReFrames                : 5 frames
Codec ID                                 : V_MPEG4/ISO/AVC
Duration                                 : 1h 49mn
Bit rate                                 : 4 045 Kbps
Width                                    : 1 280 pixels
Height                                   : 720 pixels
Display aspect ratio                     : 16:9
Frame rate mode                          : Constant
Frame rate                               : 23.976 fps
Color space                              : YUV
Chroma subsampling                       : 4:2:0
Bit depth                                : 8 bits
Scan type                                : Progressive
Bits/(Pixel*Frame)                       : 0.183
Stream size                              : 3.04 GiB (93%)
Title                                    : www.club-hd.com
Writing library                          : x264 core 129 r2230 1cffe9f
Language                                 : English
Default                                  : Yes
Forced                                   : No

Audio
ID                                       : 2
Format                                   : AC-3
Format/Info                              : Audio Coding 3
Mode extension                           : CM (complete main)
Format settings, Endianness              : Big
Codec ID                                 : A_AC3
Duration                                 : 1h 49mn
Bit rate mode                            : Constant
Bit rate                                 : 224 Kbps
Channel(s)                               : 6 channels
Channel positions                        : Front: L C R, Side: L R, LFE
Sampling rate                            : 48.0 KHz
Bit depth                                : 16 bits
Compression mode                         : Lossy
Delay relative to video                  : 18ms
Stream size                              : 176 MiB (5%)
Title                                    : www.club-hd.com
Language                                 : English
Default                                  : Yes
Forced                                   : No

Menu
00:00:00.000                             : en:00:00:00.000
00:01:26.847                             : en:00:01:26.847
00:19:00.191                             : en:00:19:00.191
00:37:18.955                             : en:00:37:18.955
00:56:07.666                             : en:00:56:07.666
01:07:53.246                             : en:01:07:53.246
01:42:46.420                             : en:01:42:46.420
01:46:53.918                             : en:01:46:53.918




Descarga.png




google-drive-vip.png


Tenemos TODO el material de Club-HD disponible por Mega, enlaces 100% activos y online hasta la fecha

Llévate tus cuentas Mega PRO III gratis con tu membresía VIP!
Todos los posts vivos con links de Mega.
Todo el material de Club-HD desbloqueado y sin publicidad.

Obtén más información sobre nuestras Membresías VIP




MEGA.jpg

Tenemos TODO el material de Club-HD disponible por Mega, enlaces 100% activos y online hasta la fecha

Llévate tus cuentas Mega PRO III gratis con tu membresía VIP!
Todos los posts vivos con links de Mega.
Todo el material de Club-HD desbloqueado y sin publicidad.

Obtén más información sobre nuestras Membresías VIP



UPLOADED.TO_BANNER.png

Para ver este contenido oculto, debes dar click en el botón"Like", o cualquiera de las otras reacciones:

Me Gusta Me Gusta, Me Encanta Me Encanta, Jaja Jaja, Wow Wow, Triste Triste, Molesto Molesto
 
Última edición por un moderador:
Oh, los conciertos me hacían falta Muchas gracias R21 siempre variando sus contenidos muchos saludos
 
Volver