Rise of the Guardians (2012) 3D H-SBS 1080p BDRip Dual Latino-Inglés [Subt. Esp-Ing] (Animación)

Maestro Revolver

Administrador
Registro
9 Ago 2012
Mensajes
3.157
Reacciones (ptje)
55.034


Rise-of-the-Guardians-3D.jpg




FichaTecnica.jpg


TÍTULO ORIGINAL: Rise of the Guardians
AÑO: 2012
DURACIÓN: 97 min.
PAÍS: USA
DIRECTOR: Peter Ramsey
GUIÓN: David Lindsay-Abaire (Libro: William Joyce)
REPARTO: Animation
PRODUCTORA: DreamWorks Animation
GÉNERO: Animación. Fantástico. Aventuras | Navidad. 3-D
imdb-logo.png
: http://www.imdb.com/title/tt1446192/

PREMIOS: 2012: Premios Annie: 2 premios técnicos. 10 nominaciones, incluyendo mejor película
2012: Globos de Oro: Nominada a Mejor película de animación
2012: Satellite Awards: Mejor largometraje de animación
2012: Critics Choice Awards: Nominada a Mejor película de animación




Sinopsis.jpg


"El origen de los guardianes" cuenta la historia de un grupo de superhéroes con extraordinarios poderes. Cuando un espíritu maligno llamado Sombra se propone inundar de miedo los corazones de los niños de todo el mundo, los Guardianes se unen por primera vez para plantarle cara y defender al mundo de su temido enemigo.




Trailer.jpg






Capturas.jpg


1.jpg


2.jpg


3.jpg


4.jpg


5.jpg


6.jpg


La pelicula NO tiene ninguna marca... solo colocamos el nombre de esta web en las capturas




MediaInfo.jpg


Código:
General
Format                                   : Matroska
Format version                           : Version 3 / Version 2
File size                                : 8.92 GiB
Duration                                 : 1h 37mn
Overall bit rate                         : 13.1 Mbps
Movie name                               : www.club-hd.com
Encoded date                             : UTC 2013-03-01 02:23:08
Writing application                      : mkvmerge v5.7.0 ('The Whirlwind') built on Jul  8 2012 20:08:51
Writing library                          : libebml v1.2.3 + libmatroska v1.3.0

Video
ID                                       : 1
Format                                   : AVC
Format/Info                              : Advanced Video Codec
Format profile                           : [email protected]
MultiView_Count                          : 2
MultiView_Layout                         : Side by Side (left eye first)
Format settings, CABAC                   : Yes
Format settings, ReFrames                : 4 frames
Codec ID                                 : V_MPEG4/ISO/AVC
Duration                                 : 1h 37mn
Bit rate                                 : 10.1 Mbps
Width                                    : 1 920 pixels
Height                                   : 1 080 pixels
Display aspect ratio                     : 16:9
Frame rate mode                          : Constant
Frame rate                               : 23.976 fps
Color space                              : YUV
Chroma subsampling                       : 4:2:0
Bit depth                                : 8 bits
Scan type                                : Progressive
Bits/(Pixel*Frame)                       : 0.203
Stream size                              : 6.85 GiB (77%)
Title                                    : www.club-hd.com
Writing library                          : x264 core 129 r2245 bc13772
Language                                 : English
Default                                  : Yes
Forced                                   : No

Audio #1
ID                                       : 2
Format                                   : AC-3
Format/Info                              : Audio Coding 3
Mode extension                           : CM (complete main)
Format settings, Endianness              : Big
Codec ID                                 : A_AC3
Duration                                 : 1h 37mn
Bit rate mode                            : Constant
Bit rate                                 : 640 Kbps
Channel(s)                               : 6 channels
Channel positions                        : Front: L C R, Side: L R, LFE
Sampling rate                            : 48.0 KHz
Bit depth                                : 16 bits
Compression mode                         : Lossy
Stream size                              : 445 MiB (5%)
Title                                    : www.club-hd.com  >>  Latino AC3 5.1
Language                                 : Spanish
Default                                  : Yes
Forced                                   : No

Audio #2
ID                                       : 3
Format                                   : AC-3
Format/Info                              : Audio Coding 3
Mode extension                           : CM (complete main)
Format settings, Endianness              : Big
Codec ID                                 : A_AC3
Duration                                 : 1h 37mn
Bit rate mode                            : Constant
Bit rate                                 : 640 Kbps
Channel(s)                               : 6 channels
Channel positions                        : Front: L C R, Side: L R, LFE
Sampling rate                            : 48.0 KHz
Bit depth                                : 16 bits
Compression mode                         : Lossy
Stream size                              : 445 MiB (5%)
Title                                    : www.club-hd.com  >>  Inglés AC3 5.1
Language                                 : English
Default                                  : No
Forced                                   : No

Audio #3
ID                                       : 4
Format                                   : DTS
Format/Info                              : Digital Theater Systems
Mode                                     : 16
Format settings, Endianness              : Big
Codec ID                                 : A_DTS
Duration                                 : 1h 37mn
Bit rate mode                            : Constant
Bit rate                                 : 1 510 Kbps
Channel(s)                               : 6 channels
Channel positions                        : Front: L C R, Side: L R, LFE
Sampling rate                            : 48.0 KHz
Bit depth                                : 24 bits
Compression mode                         : Lossy
Delay relative to video                  : 11ms
Stream size                              : 1.03 GiB (11%)
Title                                    : www.club-hd.com  >>  Inglés DTS 5.1
Language                                 : English
Default                                  : No
Forced                                   : No

Text #1
ID                                       : 5
Format                                   : UTF-8
Codec ID                                 : S_TEXT/UTF8
Codec ID/Info                            : UTF-8 Plain Text
Language                                 : Spanish
Default                                  : No
Forced                                   : No

Text #2
ID                                       : 6
Format                                   : UTF-8
Codec ID                                 : S_TEXT/UTF8
Codec ID/Info                            : UTF-8 Plain Text
Language                                 : English
Default                                  : No
Forced                                   : No

Menu
00:00:00.000                             : en:00:00:00.000
00:03:51.481                             : en:00:03:51.481
00:10:34.843                             : en:00:10:34.843
00:16:17.643                             : en:00:16:17.643
00:24:49.363                             : en:00:24:49.363
00:30:38.378                             : en:00:30:38.378
00:36:38.947                             : en:00:36:38.947
00:43:05.166                             : en:00:43:05.166
00:50:22.311                             : en:00:50:22.311
00:58:09.611                             : en:00:58:09.611
01:03:55.331                             : en:01:03:55.331
01:09:12.815                             : en:01:09:12.815
01:14:03.189                             : en:01:14:03.189
01:20:44.923                             : en:01:20:44.923
01:24:51.503                             : en:01:24:51.503
01:28:33.892                             : en:01:28:33.892




Descarga.jpg




google-drive-vip.png


Tenemos TODO el material de Club-HD disponible por Mega, enlaces 100% activos y online hasta la fecha

Llévate tus cuentas Mega PRO III gratis con tu membresía VIP!
Todos los posts vivos con links de Mega.
Todo el material de Club-HD desbloqueado y sin publicidad.

Obtén más información sobre nuestras Membresías VIP




MEGA.jpg

Tenemos TODO el material de Club-HD disponible por Mega, enlaces 100% activos y online hasta la fecha

Llévate tus cuentas Mega PRO III gratis con tu membresía VIP!
Todos los posts vivos con links de Mega.
Todo el material de Club-HD desbloqueado y sin publicidad.

Obtén más información sobre nuestras Membresías VIP



UPLOADED_BANNER.png

Para ver este contenido oculto, debes dar click en el botón"Like", o cualquiera de las otras reacciones:

Me Gusta Me Gusta, Me Encanta Me Encanta, Jaja Jaja, Wow Wow, Triste Triste, Molesto Molesto

 
Última edición por un moderador:
Que copadoooooo , gracias Señor de las Bestias , cada dia quedo mas sorprendido por las cosas que hacen muchachos , los felicito , AGUANTE EL CLUB-HD CARAJOOOOO !!!!:aplausos::LXR:R0ckin
 
si algunos les da problemas al comentar o al abrir el link sea pacientes y pruben con otros navegadores hasta que nuestros amigos resuelvan el problema funciona mejor MOZILLA que el CHROME en este momento :D
 
me voy a tener que comprar un pen drive mas grande....T0ngue2
 
bye Muy buen aporte!!! Se me acaba el espacio, tendré que comprarme un disco. Todo por tu culpa Revolver xDxDxDxD Saludos guit4r_3
 
Tantas películas y tan wuenas todas, que tengo un montón en cola, ya habrá tiempo de bajarlas, grax mil ...
 
esta peli es sensilla mente una autentica maravilla . llo en compañia de mi pequeño y mi señora la emos disfrutado muchisimo . eso en la version normal .-para esta vercion 3D.tengo la suerte de contar con una tele 3D Donde podremos disfrutarla aun mas y todo esto es posible a clud HD ,Revolver 21 y alos que componen y gestionan este maravilloso foro..-por mi y por mi familia les doy las grasias.
 
hola buenas tardes me da gusto estar con ustedes gracias a dios y que los bendiga siempre son mis mejores deseos
 
Volver