Robocop (1987) UNRATED 1080p BDRip Dual Latino-Inglés [Subt. Esp] (Ciencia ficción. Acción)

Maestro Revolver

Well-known member
Miembro del Staff
Administrador
Registro
9 Ago 2012
Mensajes
3.567








TÍTULO ORIGINAL: Robocop
AÑO: 1987
DURACIÓN: 103 min.
PAÍS: USA
DIRECTOR: Paul Verhoeven
GUIÓN: Edward Neumeier, Michael Miner
REPARTO: Peter Weller, Nancy Allen, Daniel O'Herlihy, Ronny Cox, Kurtwood Smith, Miguel Ferrer
PRODUCTORA: Metro-Goldwyn-Mayer (MGM)
GÉNERO: Ciencia ficción. Fantástico. Acción | Robots. Cyberpunk. Película de culto
: http://www.imdb.com/title/tt0093870/

Premios: 1987: 2 nominaciones al Oscar: Mejor montaje, sonido
1987: Festival de Sitges: Mejor director (Paul Verhoeven)
1988: BAFTA: Nominada mejores efectos especiales visuales y maquillaje







Ambientada en una sociedad futura. Alex J. Murphy, agente de policía de Detroit, es asesinado en acto de servicio. Para acabar con la delincuencia en la ciudad, las autoridades aprueban la creación de una máquina letal, mitad robot, mitad hombre, a la que llaman Robocop, y para fabricarla utilizan el cuerpo de Murphy. El experimento parece un éxito, pero el policía, a pesar de estar muerto, conserva la memoria y decide vengarse de sus asesinos.
























La pelicula NO tiene ninguna marca... solo colocamos el nombre de esta web en las capturas






Código:
General
Format                                   : Matroska
Format version                           : Version 2
File size                                : 8.73 GiB
Duration                                 : 1h 43mn
Overall bit rate                         : 12.1 Mbps
Movie name                               : www.club-hd.com
Encoded date                             : UTC 2013-06-22 22:00:36
Writing application                      : mkvmerge v5.7.0 ('The Whirlwind') built on Jul  8 2012 20:08:51
Writing library                          : libebml v1.2.3 + libmatroska v1.3.0

Video
ID                                       : 1
Format                                   : AVC
Format/Info                              : Advanced Video Codec
Format profile                           : High@L4.1
Format settings, CABAC                   : Yes
Format settings, ReFrames                : 4 frames
Codec ID                                 : V_MPEG4/ISO/AVC
Duration                                 : 1h 43mn
Bit rate                                 : 9 500 Kbps
Width                                    : 1 920 pixels
Height                                   : 1 040 pixels
Display aspect ratio                     : 1.85:1
Frame rate mode                          : Constant
Frame rate                               : 23.976 fps
Color space                              : YUV
Chroma subsampling                       : 4:2:0
Bit depth                                : 8 bits
Scan type                                : Progressive
Bits/(Pixel*Frame)                       : 0.198
Stream size                              : 6.68 GiB (77%)
Title                                    : www.club-hd.com
Writing library                          : x264 core 67 r1128M 682b54d
Language                                 : English
Default                                  : Yes
Forced                                   : No

Audio #1
ID                                       : 2
Format                                   : AC-3
Format/Info                              : Audio Coding 3
Mode extension                           : CM (complete main)
Format settings, Endianness              : Big
Codec ID                                 : A_AC3
Duration                                 : 1h 43mn
Bit rate mode                            : Constant
Bit rate                                 : 448 Kbps
Channel(s)                               : 6 channels
Channel positions                        : Front: L C R, Side: L R, LFE
Sampling rate                            : 48.0 KHz
Bit depth                                : 16 bits
Compression mode                         : Lossy
Stream size                              : 331 MiB (4%)
Title                                    : www.club-hd.com  >>  Latino AC3 5.1
Language                                 : Spanish
Default                                  : Yes
Forced                                   : No

Audio #2
ID                                       : 3
Format                                   : AC-3
Format/Info                              : Audio Coding 3
Mode extension                           : CM (complete main)
Format settings, Endianness              : Big
Codec ID                                 : A_AC3
Duration                                 : 1h 43mn
Bit rate mode                            : Constant
Bit rate                                 : 640 Kbps
Channel(s)                               : 6 channels
Channel positions                        : Front: L C R, Side: L R, LFE
Sampling rate                            : 48.0 KHz
Bit depth                                : 16 bits
Compression mode                         : Lossy
Stream size                              : 473 MiB (5%)
Title                                    : www.club-hd.com  >>  Inglés AC3 5.1
Language                                 : English
Default                                  : No
Forced                                   : No

Audio #3
ID                                       : 4
Format                                   : DTS
Format/Info                              : Digital Theater Systems
Mode                                     : 16
Format settings, Endianness              : Big
Codec ID                                 : A_DTS
Duration                                 : 1h 43mn
Bit rate mode                            : Constant
Bit rate                                 : 1 509 Kbps
Channel(s)                               : 6 channels
Channel positions                        : Front: L C R, Side: L R, LFE
Sampling rate                            : 48.0 KHz
Bit depth                                : 24 bits
Compression mode                         : Lossy
Stream size                              : 1.09 GiB (12%)
Title                                    : www.club-hd.com  >>  Inglés DTS 5.1
Language                                 : English
Default                                  : No
Forced                                   : No

Text
ID                                       : 5
Format                                   : UTF-8
Codec ID                                 : S_TEXT/UTF8
Codec ID/Info                            : UTF-8 Plain Text
Language                                 : Spanish
Default                                  : No
Forced                                   : No

Menu
00:00:00.000                             : en:00:00:00.000
00:06:40.692                             : en:00:06:40.692
00:14:03.134                             : en:00:14:03.134
00:17:28.130                             : en:00:17:28.130
00:26:36.178                             : en:00:26:36.178
00:34:23.561                             : en:00:34:23.561
00:40:28.343                             : en:00:40:28.343
00:45:10.833                             : en:00:45:10.833
00:49:42.146                             : en:00:49:42.146
00:57:43.627                             : en:00:57:43.627
01:01:36.735                             : en:01:01:36.735
01:08:20.680                             : en:01:08:20.680
01:15:55.384                             : en:01:15:55.384
01:22:42.040                             : en:01:22:42.040
01:33:49.374                             : en:01:33:49.374
01:37:00.314                             : en:01:37:00.314








Enlaces de Mega y Google Drive solo disponibles para Miembros VIP

Compra tu Membresía VIP y apoya a Club-HD!

ATENCIÓN! Tenemos TODO el material de Club-HD disponible por Mega y Google Drive, enlaces 100% activos y online hasta la fecha

Llévate tus cuentas Mega PRO III gratis con tu membresía VIP!
Todos los posts vivos con links de Mega y Google Drive.
Todo el material de Club-HD desbloqueado y sin publicidad.

Click Aquí para más información.



Enlaces de Mega y Google Drive solo disponibles para Miembros VIP

Compra tu Membresía VIP y apoya a Club-HD!

ATENCIÓN! Tenemos TODO el material de Club-HD disponible por Mega y Google Drive, enlaces 100% activos y online hasta la fecha

Llévate tus cuentas Mega PRO III gratis con tu membresía VIP!
Todos los posts vivos con links de Mega y Google Drive.
Todo el material de Club-HD desbloqueado y sin publicidad.

Click Aquí para más información.



Para ver este contenido oculto, debes dar click en una de las siguientes reacciones : Like Like, Love Love, Haha Haha, Wow Wow, Sad Sad, Angry Angry



Para ver este contenido oculto, debes dar click en una de las siguientes reacciones : Like Like, Love Love, Haha Haha, Wow Wow, Sad Sad, Angry Angry
 
Última edición por un moderador:

DoomsDay Elite

Well-known member
Registro
5 Sep 2012
Mensajes
1.222
reintegro pronto tendremos todo el cine aquí a nuestra disposición ,esta película me recuerda mi infancia la veía en tele cuando las pasaban que excelente recuerdo imperdible nos traes , casi que preparando la que están haciendo nueva muchas gracias bestia
 

Poooscul

Member
Registro
28 Ago 2012
Mensajes
633
Edad
43
Entre mas pasa el tiempo mas peliculas buenas, esta es como de culto para las genraciones de los 80's, la pasabanen el cinco y jamas me la perdia y ahora menos, aparte en 1080p!!!! Que mas se podi pedir? Super Chido Carnaval
 

Usuarios Que Están Viendo Este Tema (Total: 1, Miembros: 0, Invitados: 1)

Quién Leyó Este Tema (Total Miembros: 11)

Arriba