Robocop 3 (1993) 1080p BDRip Dual Latino-Inglés [Subt. Esp] (Ciencia ficción. Acción)

Maestro Revolver

Administrador
Registro
9 Ago 2012
Mensajes
3.157
Reacciones (ptje)
55.205


Robocop-3-1080p.jpg




FichaTecnica.jpg


TÍTULO ORIGINAL: Robocop 3
AÑO: 1993
DURACIÓN: 104 min.
PAÍS: USA
DIRECTOR: Fred Dekker
GUIÓN: Fred Dekker & Frank Miller
REPARTO: Robert Burke, Nancy Allen, Rip Torn, Remy Ryan, John Castle, Jill Hennessy, CCH Pounder
PRODUCTORA: Orion Pictures
GÉNERO: Ciencia ficción. Fantástico. Acción | Robots. Secuela. Cyberpunk
imdb-logo.png
: http://www.imdb.com/title/tt0107978/




Sinopsis.jpg


La mega corporación Omni Consumer Products continúa empeñada en crear su nuevo proyecto de ciudad, Delta City, para sustituir a la degradada Detroit. Por desgracia los habitantes de la zona no tienen la intención de abandonar sus hogares. Para ello la OCP pretende desalojarlos por medio de un ejército de mercenarios. Se inicia una guerrilla callejera y Robocop debe decidir de qué lado está.




Trailer.jpg






Capturas.jpg


1.jpg


2.jpg


3.jpg


4.jpg


5.jpg


6.jpg


La pelicula NO tiene ninguna marca... solo colocamos el nombre de esta web en las capturas




MediaInfo.jpg


Código:
General
Format                                   : Matroska
Format version                           : Version 2
File size                                : 8.74 GiB
Duration                                 : 1h 44mn
Overall bit rate                         : 11.9 Mbps
Movie name                               : www.club-hd.com
Encoded date                             : UTC 2013-06-27 23:27:43
Writing application                      : mkvmerge v5.7.0 ('The Whirlwind') built on Jul  8 2012 20:08:51
Writing library                          : libebml v1.2.3 + libmatroska v1.3.0

Video
ID                                       : 1
Format                                   : AVC
Format/Info                              : Advanced Video Codec
Format profile                           : [email protected]
Format settings, CABAC                   : Yes
Format settings, ReFrames                : 4 frames
Codec ID                                 : V_MPEG4/ISO/AVC
Duration                                 : 1h 44mn
Bit rate                                 : 9 337 Kbps
Width                                    : 1 920 pixels
Height                                   : 1 040 pixels
Display aspect ratio                     : 1.85:1
Frame rate mode                          : Constant
Frame rate                               : 23.976 fps
Color space                              : YUV
Chroma subsampling                       : 4:2:0
Bit depth                                : 8 bits
Scan type                                : Progressive
Bits/(Pixel*Frame)                       : 0.195
Stream size                              : 6.66 GiB (76%)
Title                                    : www.club-hd.com
Writing library                          : x264 core 104 r1713 c276662
Language                                 : English
Default                                  : Yes
Forced                                   : No

Audio #1
ID                                       : 2
Format                                   : AC-3
Format/Info                              : Audio Coding 3
Mode extension                           : CM (complete main)
Format settings, Endianness              : Big
Codec ID                                 : A_AC3
Duration                                 : 1h 44mn
Bit rate mode                            : Constant
Bit rate                                 : 448 Kbps
Channel(s)                               : 6 channels
Channel positions                        : Front: L C R, Side: L R, LFE
Sampling rate                            : 48.0 KHz
Bit depth                                : 16 bits
Compression mode                         : Lossy
Stream size                              : 336 MiB (4%)
Title                                    : www.club-hd.com  >>  Latino AC3 5.1
Language                                 : Spanish
Default                                  : Yes
Forced                                   : No

Audio #2
ID                                       : 3
Format                                   : AC-3
Format/Info                              : Audio Coding 3
Mode extension                           : CM (complete main)
Format settings, Endianness              : Big
Codec ID                                 : A_AC3
Duration                                 : 1h 44mn
Bit rate mode                            : Constant
Bit rate                                 : 640 Kbps
Channel(s)                               : 6 channels
Channel positions                        : Front: L C R, Side: L R, LFE
Sampling rate                            : 48.0 KHz
Bit depth                                : 16 bits
Compression mode                         : Lossy
Stream size                              : 480 MiB (5%)
Title                                    : www.club-hd.com  >>  Inglés AC3 5.1
Language                                 : English
Default                                  : No
Forced                                   : No

Audio #3
ID                                       : 4
Format                                   : DTS
Format/Info                              : Digital Theater Systems
Mode                                     : 16
Format settings, Endianness              : Big
Codec ID                                 : A_DTS
Duration                                 : 1h 44mn
Bit rate mode                            : Constant
Bit rate                                 : 1 509 Kbps
Channel(s)                               : 6 channels
Channel positions                        : Front: L C R, Side: L R, LFE
Sampling rate                            : 48.0 KHz
Bit depth                                : 24 bits
Compression mode                         : Lossy
Stream size                              : 1.10 GiB (13%)
Title                                    : www.club-hd.com  >>  Inglés DTS 5.1
Language                                 : English
Default                                  : No
Forced                                   : No

Text
ID                                       : 5
Format                                   : UTF-8
Codec ID                                 : S_TEXT/UTF8
Codec ID/Info                            : UTF-8 Plain Text
Language                                 : Spanish
Default                                  : No
Forced                                   : No




Descarga.jpg



MEGA.jpg

Tenemos TODO el material de Club-HD disponible por Mega, enlaces 100% activos y online hasta la fecha

Llévate tus cuentas Mega PRO III gratis con tu membresía VIP!
Todos los posts vivos con links de Mega.
Todo el material de Club-HD desbloqueado y sin publicidad.

Obtén más información sobre nuestras Membresías VIP


UPLOADED_BANNER.png

Para ver este contenido oculto, debes dar click en el botón"Like", o cualquiera de las otras reacciones:

Me Gusta Me Gusta, Me Encanta Me Encanta, Jaja Jaja, Wow Wow, Triste Triste, Molesto Molesto

1FICHIER-VIP.png

Tenemos TODO el material de Club-HD disponible por Mega, enlaces 100% activos y online hasta la fecha

Llévate tus cuentas Mega PRO III gratis con tu membresía VIP!
Todos los posts vivos con links de Mega.
Todo el material de Club-HD desbloqueado y sin publicidad.

Obtén más información sobre nuestras Membresías VIP

 
Última edición por un moderador:
Muchas gracias genio :aplausos: Con esta completo la saga Tb_up3 Ahora queda esperar la que está por salir en los cines xD Saludos bye
 
Muchisimas Gracias!!!

Es un pájaro!!!, es un avión!!!, NOOOOO!!! es......es.......Robocop volando?:plmfc: Una hermosa escena para borrar de nuestras mentes.S_T1

r3jet.png



Y ya que tuvieron la cararrotes de hacer esta película con menor presupuesto que la uno, les dejó un adelanto de lo que podría a llegar a ser una 4° parte:

"Robocop 4: La Novia de Robocop": Desopilante historia llena de acción y humor contando la primera vez que tienen sexo con su novia, el parto, los hijos y todo esto mientras él combate un ataque terrorista a su país.

Señores de Hollywood espero sus ofertas!!!:bsrs:
 
Volver