Robot & Frank (2012) m-720p Dual Latino-Ingles [Subt. Esp-Ing] (Ciencia ficción. Comedia)

Maestro Revolver

Well-known member
Miembro del Staff
Administrador
Registro
9 Ago 2012
Mensajes
3.569
Reacciones
59.350
Puntos
113

Reputation:









TÍTULO ORIGINAL: Robot and Frank (Robot & Frank)
AÑO: 2012
DURACIÓN: 90 min.
PAÍS: USA
DIRECTOR: Jake Schreier
GUIÓN: Christopher D. Ford
REPARTO: Frank Langella, James Marsden, Liv Tyler, Susan Sarandon, Peter Sarsgaard, Jeremy Strong
PRODUCTORA: Park Pictures Features / Park Pictures / TBB
GÉNERO: Ciencia ficción. Comedia. Drama | Cine independiente USA. Robots. Robos & Atracos. Vejez
: http://www.imdb.com/title/tt1990314/

PREMIOS: 2012: Festival de Sitges: Premio del público
2012: Independent Spirit Awards: Nominada a Mejor primer guión






En un futuro no muy lejano, la integración de presencias robóticas entre los humanos hará posible que surjan, por ejemplo, androides programados para cuidar personas mayores. Esa es justamente la solución que encuentran Hunter y Madison para su anciano padre Frank, cuyas pérdidas de memoria son cada vez más frecuentes. Venciendo su aversión inicial por la tecnología, este encontrará en el robot a un amigo cuidadoso y preocupado por su bienestar. Pero, paralelo a su mejoría, también surgirá en Frank el deseo por volver a ejercer su antigua “profesión” de ladrón de joyas. Luminosa y tierna, Robot & Frank integra elementos de ciencia-ficción en una historia profundamente humanista.
























La pelicula NO tiene ninguna marca... solo colocamos el nombre de esta web en las capturas






Código:
General
Format                                   : Matroska
Format version                           : Version 2
File size                                : 2.38 GiB
Duration                                 : 1h 29mn
Overall bit rate                         : 3 832 Kbps
Movie name                               : www.club-hd.com
Encoded date                             : UTC 2013-03-06 13:16:23
Writing application                      : mkvmerge v5.7.0 ('The Whirlwind') built on Jul  8 2012 20:08:51
Writing library                          : libebml v1.2.3 + libmatroska v1.3.0

Video
ID                                       : 1
Format                                   : AVC
Format/Info                              : Advanced Video Codec
Format profile                           : High@L4.1
Format settings, CABAC                   : Yes
Format settings, ReFrames                : 9 frames
Codec ID                                 : V_MPEG4/ISO/AVC
Duration                                 : 1h 29mn
Bit rate                                 : 2 742 Kbps
Width                                    : 1 280 pixels
Height                                   : 534 pixels
Display aspect ratio                     : 2.40:1
Frame rate mode                          : Constant
Frame rate                               : 23.976 fps
Color space                              : YUV
Chroma subsampling                       : 4:2:0
Bit depth                                : 8 bits
Scan type                                : Progressive
Bits/(Pixel*Frame)                       : 0.167
Stream size                              : 1.66 GiB (70%)
Title                                    : www.club-hd.com
Writing library                          : x264 core 130 r2273 b3065e6
Language                                 : English
Default                                  : Yes
Forced                                   : No

Audio #1
ID                                       : 2
Format                                   : AC-3
Format/Info                              : Audio Coding 3
Mode extension                           : CM (complete main)
Format settings, Endianness              : Big
Codec ID                                 : A_AC3
Duration                                 : 1h 29mn
Bit rate mode                            : Constant
Bit rate                                 : 448 Kbps
Channel(s)                               : 6 channels
Channel positions                        : Front: L C R, Side: L R, LFE
Sampling rate                            : 48.0 KHz
Bit depth                                : 16 bits
Compression mode                         : Lossy
Stream size                              : 285 MiB (12%)
Title                                    : www.club-hd.com  >>  Latino
Language                                 : Spanish
Default                                  : Yes
Forced                                   : No

Audio #2
ID                                       : 3
Format                                   : AC-3
Format/Info                              : Audio Coding 3
Mode extension                           : CM (complete main)
Format settings, Endianness              : Big
Codec ID                                 : A_AC3
Duration                                 : 1h 29mn
Bit rate mode                            : Constant
Bit rate                                 : 640 Kbps
Channel(s)                               : 6 channels
Channel positions                        : Front: L C R, Side: L R, LFE
Sampling rate                            : 48.0 KHz
Bit depth                                : 16 bits
Compression mode                         : Lossy
Stream size                              : 407 MiB (17%)
Title                                    : www.club-hd.com  >>  Inglés
Language                                 : English
Default                                  : No
Forced                                   : No

Text #1
ID                                       : 4
Format                                   : UTF-8
Codec ID                                 : S_TEXT/UTF8
Codec ID/Info                            : UTF-8 Plain Text
Language                                 : Spanish
Default                                  : No
Forced                                   : No

Text #2
ID                                       : 5
Format                                   : UTF-8
Codec ID                                 : S_TEXT/UTF8
Codec ID/Info                            : UTF-8 Plain Text
Language                                 : English
Default                                  : No
Forced                                   : No

Menu
00:00:00.000                             : en:Chapter 1
00:04:21.303                             : en:Chapter 2
00:08:40.895                             : en:Chapter 3
00:13:52.832                             : en:Chapter 4
00:17:57.243                             : en:Chapter 5
00:23:37.708                             : en:Chapter 6
00:29:37.317                             : en:Chapter 7
00:34:08.630                             : en:Chapter 8
00:39:36.749                             : en:Chapter 9
00:44:04.892                             : en:Chapter 10
00:50:52.841                             : en:Chapter 11
00:57:55.472                             : en:Chapter 12
01:01:44.117                             : en:Chapter 13
01:07:34.926                             : en:Chapter 14
01:13:00.376                             : en:Chapter 15
01:19:23.425                             : en:Chapter 16










Enlaces de Mega y Fireload solo disponibles para Miembros VIP

Compra tu Membresía VIP y apoya a Club-HD!

ATENCIÓN! Tenemos TODO el material de Club-HD disponible por Mega y Fireload, enlaces 100% activos y online hasta la fecha

Llévate tus cuentas Mega PRO II gratis con tu membresía VIP!
Todos los posts vivos con links de Mega y Fireload.
Todo el material de Club-HD desbloqueado y sin publicidad.

Click Aquí para más información.




Enlaces de Mega y Fireload solo disponibles para Miembros VIP

Compra tu Membresía VIP y apoya a Club-HD!

ATENCIÓN! Tenemos TODO el material de Club-HD disponible por Mega y Fireload, enlaces 100% activos y online hasta la fecha

Llévate tus cuentas Mega PRO II gratis con tu membresía VIP!
Todos los posts vivos con links de Mega y Fireload.
Todo el material de Club-HD desbloqueado y sin publicidad.

Click Aquí para más información.



Para ver este contenido oculto, debes dar click en una de las siguientes reacciones : Like Like, Love Love, Haha Haha, Wow Wow, Sad Sad, Angry Angry

 
Última edición:

Lug

Well-known member
Registro
24 Oct 2012
Mensajes
1.691
Reacciones
37
Puntos
48
Edad
62

Reputation:

Desc_g_
Muchas gracias....
 

Leo-Peru

Well-known member
Registro
27 Ago 2012
Mensajes
1.489
Reacciones
564
Puntos
113
Ubicación
Lima
Sitio web
www.facebook.com

Reputation:

Tb_up3 gracias se ve interesante esta pelicula, en lo particular me gusta mucho las de ciencia asi que ficción Desc_g_
 

zacygal

Well-known member
Registro
3 Sep 2012
Mensajes
1.515
Reacciones
1.536
Puntos
113
Edad
49

Reputation:

es una cosa de locos, van 2 semanas k mi laptop, no la apago, grax por tan buenas películas ...
 

DoomsDay Elite

Well-known member
Registro
5 Sep 2012
Mensajes
1.225
Reacciones
1.101
Puntos
113

Reputation:

la cantidad de películas subidas es mas de 2 por día shok puede ser que sean 4 al día ? ahora si creo que nuestros amigos ya no son humanos ya pasaron a la inmortalidad no necesitan dormir ni descansar !ADELANTE SIEMPRE CON MAS!
 
Última edición:

Usuarios Que Están Viendo Este Tema (Total: 1, Miembros: 0, Invitados: 1)

Arriba