Rolling Stones - Shine a Light (2008) 720p BRRip [AC3 5.1] (Concierto. Documental)

Maestro Revolver

Well-known member
Miembro del Staff
Administrador
Registro
9 Ago 2012
Mensajes
3.567








Documental sobre los Rolling Stones. Martin Scorsese ilumina con su propia visión a la más grande banda de rock de todos los tiempos. Un acercamiento riguroso, deslumbrante, divertido y profundamente humano a los cuatro miembros de los Rolling Stones a lo largo de su pasado y su más enérgico presente. Nunca una película se había acercado más al rock y el musical nunca había adquirido tantos decibelios. Son sus satánicas majestades como nunca antes se los había visto, con la mirada maestra de un gran cineasta que en esta película parece el quinto Rolling stone.



Track List:

01. Jumping Jack Flash
02. Shattered
03. She Was Hot
04. All Down The Line
05. Loving Cup with Jack White
06. As Tears Go By
07. Some Girls
08. Just My Imagination
09. Faraway Eyes
10. Champagne & Reefer with Buddy Guy
11. Tumbling Dice
12. Band Introductions
13. You Got The Silver – Richards on lead vocals
14. Connection – Richards on lead vocals
15. Sympathy For The Devil
16. Live With Me – with Christina Aguilera
17. Start Me Up
18. Brown Sugar
19. I Can’t Get No Satisfaction

































Código:
General
Format                                   : Matroska
Format version                           : Version 2
File size                                : 3.12 GiB
Duration                                 : 2h 1mn
Overall bit rate                         : 3 659 Kbps
Movie name                               : www.club-hd.com
Encoded date                             : UTC 2013-07-20 16:09:45
Writing application                      : mkvmerge v5.7.0 ('The Whirlwind') built on Jul  8 2012 20:08:51
Writing library                          : libebml v1.2.3 + libmatroska v1.3.0

Video
ID                                       : 1
Format                                   : MPEG-4 Visual
Format profile                           : Advanced Simple@L5
Format settings, BVOP                    : Yes
Format settings, QPel                    : No
Format settings, GMC                     : No warppoints
Format settings, Matrix                  : Default (H.263)
Codec ID                                 : V_MS/VFW/FOURCC / XVID
Codec ID/Hint                            : XviD
Duration                                 : 2h 1mn
Bit rate                                 : 3 138 Kbps
Width                                    : 1 280 pixels
Height                                   : 720 pixels
Display aspect ratio                     : 16:9
Frame rate mode                          : Constant
Frame rate                               : 23.976 fps
Color space                              : YUV
Chroma subsampling                       : 4:2:0
Bit depth                                : 8 bits
Scan type                                : Progressive
Compression mode                         : Lossy
Bits/(Pixel*Frame)                       : 0.142
Stream size                              : 2.67 GiB (86%)
Title                                    : www.club-hd.com
Writing library                          : XviD 64
Language                                 : English
Default                                  : Yes
Forced                                   : No

Audio
ID                                       : 2
Format                                   : AC-3
Format/Info                              : Audio Coding 3
Mode extension                           : CM (complete main)
Format settings, Endianness              : Big
Codec ID                                 : A_AC3
Duration                                 : 2h 1mn
Bit rate mode                            : Constant
Bit rate                                 : 448 Kbps
Channel(s)                               : 6 channels
Channel positions                        : Front: L C R, Side: L R, LFE
Sampling rate                            : 48.0 KHz
Bit depth                                : 16 bits
Compression mode                         : Lossy
Stream size                              : 391 MiB (12%)
Language                                 : English
Default                                  : Yes
Forced                                   : No

Text
ID                                       : 3
Format                                   : UTF-8
Codec ID                                 : S_TEXT/UTF8
Codec ID/Info                            : UTF-8 Plain Text
Language                                 : Spanish
Default                                  : Yes
Forced                                   : No








Enlaces de Mega y Google Drive solo disponibles para Miembros VIP

Compra tu Membresía VIP y apoya a Club-HD!

ATENCIÓN! Tenemos TODO el material de Club-HD disponible por Mega y Google Drive, enlaces 100% activos y online hasta la fecha

Llévate tus cuentas Mega PRO III gratis con tu membresía VIP!
Todos los posts vivos con links de Mega y Google Drive.
Todo el material de Club-HD desbloqueado y sin publicidad.

Click Aquí para más información.


Para ver este contenido oculto, debes dar click en una de las siguientes reacciones : Like Like, Love Love, Haha Haha, Wow Wow, Sad Sad, Angry Angry

 
Última edición por un moderador:

Usuarios Que Están Viendo Este Tema (Total: 1, Miembros: 0, Invitados: 1)

Quién Leyó Este Tema (Total Miembros: 1)

Arriba