Ruby Sparks (2012) m-720p BDRip Inglés [Subt. Esp-Ing] (Romance. Comedia)

Max

Admin

Administrador
Registro
8 Ago 2012
Mensajes
6.167
Reacciones (ptje)
26.845

Ruby_Sparks_POSTER.jpg



TÍTULO ORIGINAL: Ruby Sparks
TÍTULO EN LATINO: Ruby - La chica de mis sueños
AÑO: 2012
DURACIÓN: 104 min.
PAÍS: Estados Unidos
DIRECTOR: Jonathan Dayton, Valerie Faris
GUIÓN: Zoe Kazan
MÚSICA: Nick Urata
FOTOGRAFÍA: Matthew Libatique
REPARTO: Paul Dano, Zoe Kazan, Chris Messina, Antonio Banderas, Annette Bening, Steve Coogan, Elliott Gould, Aasif Mandvi, Deborah Ann Woll, Toni Trucks, Alia Shawkat, Wallace Langham, John F. Beach, Jane Anne Thomas, Eleanor Seigler, Emma Jacobs
PRODUCTORA: Fox Searchlight Pictures / Bona Fide Productions
GÉNERO: Romance. Comedia | Comedia romántica. Cine independiente USA

IMDb.png
http://www.imdb.com/title/tt1839492/




SINOPSIS.png


Los directores de "Little Miss Sunshine" relatan la historia de un escritor que se enamora de uno de sus personajes femeninos. Calvin Weir-Fields (Paul Dano) había sido un niño-prodigio, cuya primera novela había tenido un gran éxito. Pero, desde entonces, sufre un sistemático bloqueo creativo agravado por su deprimente vida amorosa. Finalmente, consigue crear un personaje femenino, Ruby Sparks (Zoe Kazan), que acaba materializándose y compartiendo la vida con él. Además, cada vez que Calvin se sienta ante su máquina de escribir, tiene la facultad de cambiar a Ruby a su antojo. El problema consistirá en lograr que esa relación, que sólo existe en su mente, funcione también en el mundo real.




YOUTUBE_LOGO.png






CAPTURAS.png


Ruby_Sparks_CAPTURA-1.jpg


Ruby_Sparks_CAPTURA-2.jpg


Ruby_Sparks_CAPTURA-3.jpg


Ruby_Sparks_CAPTURA-4.jpg


Ruby_Sparks_CAPTURA-5.jpg


Ruby_Sparks_CAPTURA-6.jpg


Ruby_Sparks_CAPTURA-7.jpg





DATOS_TECNICOS.png


Código:
General
Complete name                    : Ruby Sparks (2012) m-720p BDRip Inglés [Subt. Esp-Ing].mkv
Format                           : Matroska
Format version                   : Version 2
File size                        : 2.20 GiB
Duration                         : 1h 44mn
Overall bit rate                 : 3 027 Kbps
Movie name                       : www.club-hd.com --> Ruby Sparks (2012) m-720p BDRip Inglés [Subt. Esp-Ing]
Encoded date                     : UTC 2012-10-26 23:02:57
Writing application              : mkvmerge v5.8.0 ('No Sleep / Pillow') built on Sep  2 2012 15:37:04
Writing library                  : libebml v1.2.3 + libmatroska v1.3.0

Video
ID                               : 1
Format                           : AVC
Format/Info                      : Advanced Video Codec
Format profile                   : [email protected]
Format settings, CABAC           : Yes
Format settings, ReFrames        : 8 frames
Codec ID                         : V_MPEG4/ISO/AVC
Duration                         : 1h 44mn
Bit rate                         : 2 580 Kbps
Width                            : 1 280 pixels
Height                           : 694 pixels
Display aspect ratio             : 16:9
Frame rate                       : 23.976 fps
Color space                      : YUV
Chroma subsampling               : 4:2:0
Bit depth                        : 8 bits
Scan type                        : Progressive
Bits/(Pixel*Frame)               : 0.121
Stream size                      : 1.83 GiB (83%)
Title                            : www.club-hd.com --> Ruby Sparks (2012) m-720p BDRip Inglés [Subt. Esp-Ing]
Writing library                  : x264 core 128 r2216 198a7ea
Encoding settings                : cabac=1 / ref=9 / deblock=1:-3:-3 / analyse=0x3:0x113 / me=umh / subme=10 / psy=1 / psy_rd=1.00:0.00 / mixed_ref=1 / me_range=16 / chroma_me=1 / trellis=2 / 8x8dct=1 / cqm=0 / deadzone=21,11 / fast_pskip=1 / chroma_qp_offset=-2 / threads=12 / lookahead_threads=2 / sliced_threads=0 / nr=0 / decimate=1 / interlaced=0 / bluray_compat=0 / constrained_intra=0 / bframes=3 / b_pyramid=1 / b_adapt=1 / b_bias=0 / direct=1 / weightb=1 / open_gop=0 / weightp=2 / keyint=250 / keyint_min=23 / scenecut=40 / intra_refresh=0 / rc=2pass / mbtree=0 / bitrate=2580 / ratetol=1.0 / qcomp=0.60 / qpmin=0 / qpmax=69 / qpstep=4 / cplxblur=20.0 / qblur=0.5 / ip_ratio=1.40 / pb_ratio=1.30 / aq=1:0.80
Language                         : English
Default                          : Yes
Forced                           : No

Audio
ID                               : 2
Format                           : AC-3
Format/Info                      : Audio Coding 3
Mode extension                   : CM (complete main)
Codec ID                         : A_AC3
Duration                         : 1h 44mn
Bit rate mode                    : Constant
Bit rate                         : 448 Kbps
Channel(s)                       : 6 channels
Channel positions                : Front: L C R, Side: L R, LFE
Sampling rate                    : 48.0 KHz
Bit depth                        : 16 bits
Compression mode                 : Lossy
Stream size                      : 334 MiB (15%)
Title                            : Ruby Sparks (2012) - Inglés AC3 5.1
Language                         : English
Default                          : Yes
Forced                           : No

Text #1
ID                               : 3
Format                           : UTF-8
Codec ID                         : S_TEXT/UTF8
Codec ID/Info                    : UTF-8 Plain Text
Title                            : Subtítulos Español
Language                         : Spanish
Default                          : Yes
Forced                           : No

Text #2
ID                               : 4
Format                           : UTF-8
Codec ID                         : S_TEXT/UTF8
Codec ID/Info                    : UTF-8 Plain Text
Title                            : Subtítulos Inglés
Language                         : English
Default                          : No
Forced                           : No

Menu
00:00:00.000                     : en:Chapter 1
00:06:06.700                     : en:Chapter 2
00:10:14.989                     : en:Chapter 3
00:13:31.227                     : en:Chapter 4
00:16:21.480                     : en:Chapter 5
00:20:16.841                     : en:Chapter 6
00:23:11.223                     : en:Chapter 7
00:28:19.531                     : en:Chapter 8
00:32:21.731                     : en:Chapter 9
00:35:40.805                     : en:Chapter 10
00:39:57.478                     : en:Chapter 11
00:43:04.540                     : en:Chapter 12
00:46:10.851                     : en:Chapter 13
00:51:42.266                     : en:Chapter 14
00:55:39.378                     : en:Chapter 15
00:58:41.727                     : en:Chapter 16
01:02:51.476                     : en:Chapter 17
01:07:18.493                     : en:Chapter 18
01:13:06.465                     : en:Chapter 19
01:18:41.592                     : en:Chapter 20
01:24:02.996                     : en:Chapter 21
01:32:48.229                     : en:Chapter 22
01:37:07.655                     : en:Chapter 23
01:39:40.474                     : en:Chapter 24




DESCARGA.png



google-drive-vip.png


Tenemos TODO el material de Club-HD disponible por Mega, enlaces 100% activos y online hasta la fecha

Llévate tus cuentas Mega PRO III gratis con tu membresía VIP!
Todos los posts vivos con links de Mega.
Todo el material de Club-HD desbloqueado y sin publicidad.

Obtén más información sobre nuestras Membresías VIP




MEGA.jpg

Tenemos TODO el material de Club-HD disponible por Mega, enlaces 100% activos y online hasta la fecha

Llévate tus cuentas Mega PRO III gratis con tu membresía VIP!
Todos los posts vivos con links de Mega.
Todo el material de Club-HD desbloqueado y sin publicidad.

Obtén más información sobre nuestras Membresías VIP


UPLOADED.NET_BANNER.png


Para ver este contenido oculto, debes dar click en el botón"Like", o cualquiera de las otras reacciones:

Me Gusta Me Gusta, Me Encanta Me Encanta, Jaja Jaja, Wow Wow, Triste Triste, Molesto Molesto
 
Última edición por un moderador:
gracias querido max , veremos que tal !!!!!:dplgar:
 
Uhhh esta no la conocia, pero esta liviana y se ve llamativa, creo que baldra la pena
Desc_g_
Gracias mi buen amigo Max :aplausos:
 
y esta.... creo que se ve buena, a descargar entonces gracias max veremos que tal :dplgar:
 
Volver