• Buenos dias amigos del club. Les queremos avisar que ya recuperamos el acceso a las webs de las Membresías VIP y del Paste. Asi que ya pueden comprar sus membresías y descargar todos los estrenos nuevamente.

Rudo y Cursi (2008) 720p Audio Latino (Comedia)

Maestro Revolver

Administrador
Registro
9 Ago 2012
Mensajes
3.157
Reacciones (ptje)
55.343


Rudo-Cursi.jpg




FICHA_TECNICA.png


TÍTULO ORIGINAL: Rudo y Cursi
AÑO: 2008
DURACIÓN: 100 min.
PAÍS: México
DIRECTOR: Carlos Cuarón
GUIÓN: Carlos Cuarón
REPARTO: Gael García Bernal, Diego Luna, Guillermo Francella, Felipe de Lara, Iván Esquivel, Dolores Heredia, Joaquín Cosio, Malillany Marín, Jessica Mas, Salvador Zerboni, Adriana Paz, Armando Hernández, Enoc Leaño
PRODUCTORA: Coproducción México-EEUU; Canana Films
GÉNERO: Comedia | Deporte. Fútbol
imdb-logo.png
: http://www.imdb.com/title/tt0405393/




SINOPSIS.png


La historia de "Rudo y Cursi" gira en torno a dos hermanos, Beto (Diego Luna), quien quiere ser futbolista, y Toto (Gael García Bernal), que sueña con ser cantante de música norteña. Ambos desean llevar a cabo sus deseos para tener una mejor condición económica. Sin embargo, la rivalidad típica entre hermanos los pone a prueba.




TRAILER.png






CAPTURAS.png


1.jpg


2.jpg


3.jpg


4.jpg


5.jpg


6.jpg


La pelicula NO tiene ninguna marca... solo colocamos el nombre de esta web en las capturas




DATOS_TECNICOS.png


Código:
General
Format                                   : Matroska
Format version                           : Version 2
File size                                : 4.37 GiB
Duration                                 : 1h 41mn
Overall bit rate                         : 6 152 Kbps
Movie name                               : www.club-hd.com
Encoded date                             : UTC 2012-12-23 23:01:33
Writing application                      : mkvmerge v5.7.0 ('The Whirlwind') built on Jul  8 2012 20:08:51
Writing library                          : libebml v1.2.3 + libmatroska v1.3.0

Video
ID                                       : 1
Format                                   : AVC
Format/Info                              : Advanced Video Codec
Format profile                           : [email protected]
Format settings, CABAC                   : Yes
Format settings, ReFrames                : 5 frames
Codec ID                                 : V_MPEG4/ISO/AVC
Duration                                 : 1h 41mn
Bit rate                                 : 5 511 Kbps
Width                                    : 1 280 pixels
Height                                   : 720 pixels
Display aspect ratio                     : 16:9
Frame rate mode                          : Constant
Frame rate                               : 23.976 fps
Color space                              : YUV
Chroma subsampling                       : 4:2:0
Bit depth                                : 8 bits
Scan type                                : Progressive
Bits/(Pixel*Frame)                       : 0.249
Stream size                              : 3.83 GiB (88%)
Title                                    : www.club-hd.com
Writing library                          : x264 core 72 r1232 c8edc12
Default                                  : Yes
Forced                                   : No

Audio
ID                                       : 2
Format                                   : AC-3
Format/Info                              : Audio Coding 3
Mode extension                           : CM (complete main)
Format settings, Endianness              : Big
Codec ID                                 : A_AC3
Duration                                 : 1h 41mn
Bit rate mode                            : Constant
Bit rate                                 : 640 Kbps
Channel(s)                               : 6 channels
Channel positions                        : Front: L C R, Side: L R, LFE
Sampling rate                            : 48.0 KHz
Bit depth                                : 16 bits
Compression mode                         : Lossy
Stream size                              : 466 MiB (10%)
Title                                    : www.club-hd.com
Language                                 : Spanish
Default                                  : Yes
Forced                                   : No




Descarga.png




google-drive-vip.png


Tenemos TODO el material de Club-HD disponible por Mega, enlaces 100% activos y online hasta la fecha

Llévate tus cuentas Mega PRO III gratis con tu membresía VIP!
Todos los posts vivos con links de Mega.
Todo el material de Club-HD desbloqueado y sin publicidad.

Obtén más información sobre nuestras Membresías VIP




MEGA.jpg

Tenemos TODO el material de Club-HD disponible por Mega, enlaces 100% activos y online hasta la fecha

Llévate tus cuentas Mega PRO III gratis con tu membresía VIP!
Todos los posts vivos con links de Mega.
Todo el material de Club-HD desbloqueado y sin publicidad.

Obtén más información sobre nuestras Membresías VIP



UPLOADED.TO_BANNER.png

Para ver este contenido oculto, debes dar click en el botón"Like", o cualquiera de las otras reacciones:

Me Gusta Me Gusta, Me Encanta Me Encanta, Jaja Jaja, Wow Wow, Triste Triste, Molesto Molesto
 
Última edición por un moderador:
no manches, genial master peliculas mexicanas como esta es lo que me hacia falta, gracias
 
Volver