• Buenos dias amigos del club. Les queremos avisar que ya recuperamos el acceso a las webs de las Membresías VIP y del Paste. Asi que ya pueden comprar sus membresías y descargar todos los estrenos nuevamente.

Runner, Runner (2013) 1080p BDRip Dual Latino-Inglés [Subt. Esp] (Thriller)

Maestro Revolver

Administrador
Registro
9 Ago 2012
Mensajes
3.157
Reacciones (ptje)
55.322


Runner-Runner-1080p.jpg




FichaTecnica.jpg


TÍTULO ORIGINAL: Runner, Runner
AÑO: 2013
DURACIÓN: 91 min.
PAÍS: USA
DIRECTOR: Brad Furman
GUIÓN: Brian Koppelman, David Levien
REPARTO: Ben Affleck, Justin Timberlake, Gemma Arterton, Anthony Mackie, Sam Palladio, David Costabile, Oliver Cooper, Ben Schwartz, Laurence Mason, Dayo Okeniyi, Yul Vazquez, Louis Lombardi, Diana Laura, Carlos Sanz, Sam Upton, Bob Gunton
PRODUCTORA: New Regency Picture / Appian Way / Double Feature Films
GÉNERO: Thriller. Intriga. Drama | Crimen. Póker
imdb-logo.png
: http://www.imdb.com/title/tt2364841/




Sinopsis.jpg


Richie Furst (Justin Timberlake) es un estudiante de la Universidad de Princeton que pierde el dinero que necesitaba para su matrícula al apostarlo en un juego de póker online. Cuando descubre que el sitio web está alojado en una isla remota, va a enfrentar a su dueño, el millonario Ivan Block (Ben Affleck), pero termina convirtiéndose en su discípulo y mano derecha. La relación entre ambos alcanza el punto de ebullición mientras un agente del FBI (Anthony Mackie) intenta utilizar a Furst para detener a Block.




Trailer.jpg






Capturas.jpg


1.jpg


2.jpg


3.jpg


4.jpg


5.jpg


6.jpg


La pelicula NO tiene ninguna marca... solo colocamos el nombre de esta web en las capturas




MediaInfo.jpg


Código:
General
Format                                   : Matroska
Format version                           : Version 2
File size                                : 7.25 GiB
Duration                                 : 1h 31mn
Overall bit rate                         : 11.3 Mbps
Movie name                               : www.club-hd.com
Encoded date                             : UTC 2013-12-22 13:28:24
Writing application                      : mkvmerge v5.7.0 ('The Whirlwind') built on Jul  8 2012 20:08:51
Writing library                          : libebml v1.2.3 + libmatroska v1.3.0

Video
ID                                       : 1
Format                                   : AVC
Format/Info                              : Advanced Video Codec
Format profile                           : [email protected]
Format settings, CABAC                   : Yes
Format settings, ReFrames                : 5 frames
Codec ID                                 : V_MPEG4/ISO/AVC
Duration                                 : 1h 31mn
Bit rate                                 : 8 745 Kbps
Width                                    : 1 920 pixels
Height                                   : 800 pixels
Display aspect ratio                     : 2.40:1
Frame rate mode                          : Constant
Frame rate                               : 23.976 fps
Color space                              : YUV
Chroma subsampling                       : 4:2:0
Bit depth                                : 8 bits
Scan type                                : Progressive
Bits/(Pixel*Frame)                       : 0.237
Stream size                              : 5.44 GiB (75%)
Title                                    : www.club-hd.com
Writing library                          : x264 core 140 r2377 1ca7bb9
Language                                 : English
Default                                  : Yes
Forced                                   : No

Audio #1
ID                                       : 2
Format                                   : AC-3
Format/Info                              : Audio Coding 3
Mode extension                           : CM (complete main)
Format settings, Endianness              : Big
Codec ID                                 : A_AC3
Duration                                 : 1h 31mn
Bit rate mode                            : Constant
Bit rate                                 : 448 Kbps
Channel(s)                               : 6 channels
Channel positions                        : Front: L C R, Side: L R, LFE
Sampling rate                            : 48.0 KHz
Bit depth                                : 16 bits
Compression mode                         : Lossy
Stream size                              : 293 MiB (4%)
Title                                    : www.club-hd.com  >>  Latino AC3 5.1
Language                                 : Spanish
Default                                  : Yes
Forced                                   : No

Audio #2
ID                                       : 3
Format                                   : AC-3
Format/Info                              : Audio Coding 3
Mode extension                           : CM (complete main)
Format settings, Endianness              : Big
Codec ID                                 : A_AC3
Duration                                 : 1h 31mn
Bit rate mode                            : Constant
Bit rate                                 : 640 Kbps
Channel(s)                               : 6 channels
Channel positions                        : Front: L C R, Side: L R, LFE
Sampling rate                            : 48.0 KHz
Bit depth                                : 16 bits
Compression mode                         : Lossy
Stream size                              : 419 MiB (6%)
Title                                    : www.club-hd.com  >>  Inglés AC3 5.1
Language                                 : English
Default                                  : No
Forced                                   : No

Audio #3
ID                                       : 4
Format                                   : DTS
Format/Info                              : Digital Theater Systems
Mode                                     : 16
Format settings, Endianness              : Big
Codec ID                                 : A_DTS
Duration                                 : 1h 31mn
Bit rate mode                            : Constant
Bit rate                                 : 1 509 Kbps
Channel(s)                               : 6 channels
Channel positions                        : Front: L C R, Side: L R, LFE
Sampling rate                            : 48.0 KHz
Bit depth                                : 24 bits
Compression mode                         : Lossy
Stream size                              : 988 MiB (13%)
Title                                    : www.club-hd.com  >>  Inglés DTS 5.1
Language                                 : English
Default                                  : No
Forced                                   : No

Text
ID                                       : 5
Format                                   : UTF-8
Codec ID                                 : S_TEXT/UTF8
Codec ID/Info                            : UTF-8 Plain Text
Language                                 : Spanish
Default                                  : No
Forced                                   : No

Menu
00:00:00.000                             : en:00:00:00.000
00:03:08.814                             : en:00:03:08.814
00:05:47.973                             : en:00:05:47.973
00:08:43.857                             : en:00:08:43.857
00:11:16.384                             : en:00:11:16.384
00:13:34.647                             : en:00:13:34.647
00:15:13.913                             : en:00:15:13.913
00:16:55.765                             : en:00:16:55.765
00:19:46.602                             : en:00:19:46.602
00:24:24.505                             : en:00:24:24.505
00:27:07.334                             : en:00:27:07.334
00:31:01.943                             : en:00:31:01.943
00:32:59.811                             : en:00:32:59.811
00:36:30.605                             : en:00:36:30.605
00:38:40.026                             : en:00:38:40.026
00:43:36.906                             : en:00:43:36.906
00:46:38.087                             : en:00:46:38.087
00:48:37.706                             : en:00:48:37.706
00:53:03.555                             : en:00:53:03.555
00:54:38.609                             : en:00:54:38.609
00:57:18.644                             : en:00:57:18.644
01:00:38.885                             : en:01:00:38.885
01:03:17.669                             : en:01:03:17.669
01:08:48.833                             : en:01:08:48.833
01:13:04.797                             : en:01:13:04.797
01:16:45.935                             : en:01:16:45.935
01:21:22.961                             : en:01:21:22.961
01:25:32.502                             : en:01:25:32.502




Descarga.jpg



MEGA.jpg

Tenemos TODO el material de Club-HD disponible por Mega, enlaces 100% activos y online hasta la fecha

Llévate tus cuentas Mega PRO III gratis con tu membresía VIP!
Todos los posts vivos con links de Mega.
Todo el material de Club-HD desbloqueado y sin publicidad.

Obtén más información sobre nuestras Membresías VIP



UPLOADED_BANNER.png

Para ver este contenido oculto, debes dar click en el botón"Like", o cualquiera de las otras reacciones:

Me Gusta Me Gusta, Me Encanta Me Encanta, Jaja Jaja, Wow Wow, Triste Triste, Molesto Molesto

 
Última edición por un moderador:
Muchas Gracias!!!


Ahora cada vez que veo a Ben Affleck se me presenta de esta maneraaaaa!!!!! N0_2

batman-affleck-620_1792687a.jpg


....Aunque pensandolo.....Pnsand0.....cuando hicieron el casting para Superman y quedó Brandon Routh, nadie hizo nada.l0l

hello-kitty-superman.jpg
 
Volver