Rurouni Kenshin (2012) 720p Audio Japonés [Subt. Esp] (Drama. Acción)

Maestro Revolver

Well-known member
Miembro del Staff
Administrador
Registro
9 Ago 2012
Mensajes
3.569
Reacciones
59.480
Puntos
113

Reputation:









TÍTULO ORIGINAL: Rurôni Kenshin: Meiji kenkaku roman tan (Rurouni Kenshin Live Action)
AÑO: 2012
DURACIÓN: 134 min.
PAÍS: Japón
DIRECTOR: Keishi Ohtomo
GUIÓN: Cómic: Nobuhiro Watsuki
REPARTO: Takeru Sato, Emi Takei, Munetaka Aoki, Yû Aoi, Teruyuki Kagawa, Yôsuke Eguchi, Kôji Kikkawa, Taketo Tanaka
PRODUCTORA: IMJ Entertainment / RoC Works Co. / Studio Swan
GÉNERO: Drama. Acción | Japón feudal. Samuráis. Manga
: http://www.imdb.com/title/tt1979319/






Himura Kenshin (Takeru Sato) es un famoso samurai conocido por su destreza con la katana y su frialdad a la hora de matar. En el pasado estuvo al servicio de los Ishin Shishi, un grupo de patriotas que luchaban para devolver el poder al Emperador, librando cientos de batallas y cobrándose muchas vidas. Pero tras terminar todos los enfrentamientos, jura no volver a matar y decide pasar al anonimato para dedicarse a viajar por el país como un vagabundo ayudando a quien lo necesite, como penitencia por todas las muertes que provocó. Diez años después, en 1878, Kenshin llega a Tokio donde conoce a Kaoru (Emi Takei), quien le invita a quedarse en su dojo hasta que decida volver a vagabundear. Sin embargo, el pasado que Kenshin intentó dejar atrás pronto volverá para cobrarse venganza contra él.






























La pelicula NO tiene ninguna marca... solo colocamos el nombre de esta web en las capturas






Código:
General
Format                                   : Matroska
Format version                           : Version 2
File size                                : 4.36 GiB
Duration                                 : 2h 14mn
Overall bit rate                         : 4 643 Kbps
Movie name                               : www.club-hd.com
Encoded date                             : UTC 2013-01-02 21:47:07
Writing application                      : mkvmerge v5.7.0 ('The Whirlwind') built on Jul  8 2012 20:08:51
Writing library                          : libebml v1.2.3 + libmatroska v1.3.0

Video
ID                                       : 1
Format                                   : AVC
Format/Info                              : Advanced Video Codec
Format profile                           : High@L4.1
Format settings, CABAC                   : Yes
Format settings, ReFrames                : 12 frames
Codec ID                                 : V_MPEG4/ISO/AVC
Duration                                 : 2h 14mn
Bit rate                                 : 4 005 Kbps
Width                                    : 1 280 pixels
Height                                   : 536 pixels
Display aspect ratio                     : 2.40:1
Frame rate mode                          : Constant
Frame rate                               : 23.976 fps
Color space                              : YUV
Chroma subsampling                       : 4:2:0
Bit depth                                : 8 bits
Scan type                                : Progressive
Bits/(Pixel*Frame)                       : 0.243
Stream size                              : 3.67 GiB (84%)
Title                                    : www.club-hd.com
Writing library                          : x264 core 125 r2208 d9d2288
Language                                 : English
Default                                  : Yes
Forced                                   : No
Color primaries                          : BT.709
Transfer characteristics                 : BT.709
Matrix coefficients                      : BT.709

Audio
ID                                       : 2
Format                                   : AC-3
Format/Info                              : Audio Coding 3
Mode extension                           : CM (complete main)
Format settings, Endianness              : Big
Codec ID                                 : A_AC3
Duration                                 : 2h 14mn
Bit rate mode                            : Constant
Bit rate                                 : 640 Kbps
Channel(s)                               : 6 channels
Channel positions                        : Front: L C R, Side: L R, LFE
Sampling rate                            : 48.0 KHz
Bit depth                                : 16 bits
Compression mode                         : Lossy
Stream size                              : 615 MiB (14%)
Title                                    : www.club-hd.com
Language                                 : Japanese
Default                                  : Yes
Forced                                   : No

Text
ID                                       : 3
Format                                   : UTF-8
Codec ID                                 : S_TEXT/UTF8
Codec ID/Info                            : UTF-8 Plain Text
Language                                 : Spanish
Default                                  : Yes
Forced                                   : No










Enlaces de Mega y Fireload solo disponibles para Miembros VIP

Compra tu Membresía VIP y apoya a Club-HD!

ATENCIÓN! Tenemos TODO el material de Club-HD disponible por Mega y Fireload, enlaces 100% activos y online hasta la fecha

Llévate tus cuentas Mega PRO II gratis con tu membresía VIP!
Todos los posts vivos con links de Mega y Fireload.
Todo el material de Club-HD desbloqueado y sin publicidad.

Click Aquí para más información.




Enlaces de Mega y Fireload solo disponibles para Miembros VIP

Compra tu Membresía VIP y apoya a Club-HD!

ATENCIÓN! Tenemos TODO el material de Club-HD disponible por Mega y Fireload, enlaces 100% activos y online hasta la fecha

Llévate tus cuentas Mega PRO II gratis con tu membresía VIP!
Todos los posts vivos con links de Mega y Fireload.
Todo el material de Club-HD desbloqueado y sin publicidad.

Click Aquí para más información.



Para ver este contenido oculto, debes dar click en una de las siguientes reacciones : Like Like, Love Love, Haha Haha, Wow Wow, Sad Sad, Angry Angry
 
Última edición:

tonox017

New member
Registro
29 Ago 2012
Mensajes
132
Reacciones
7
Puntos
0

Reputation:

Desc_g_
:aplausos::sprloc::OHHH:Ne0
Gracias!!!!!!!!!!!!!!!!!!!!!!!
 

eljumachi

Well-known member
Miembro VIP
Registro
27 Ago 2012
Mensajes
2.178
Reacciones
340
Puntos
83

Reputation:

oooh una pelicula de mis paisanos Gracias R21 Saludos
 
Registro
28 Ago 2012
Mensajes
423
Reacciones
18
Puntos
18

Reputation:

no sabia que la habian tirado al cine bueno vamos a ver que tal me gusto mucho el anime
 

Usuarios Que Están Viendo Este Tema (Total: 1, Miembros: 0, Invitados: 1)

Arriba