Safe (2012) m-720p Dual Latino-Inglés [Subt. Esp-Ing] (Acción)

Maestro Revolver

Well-known member
Miembro del Staff
Administrador
Registro
9 Ago 2012
Mensajes
3.569
Reacciones
59.366
Puntos
113

Reputation:









TÍTULO ORIGINAL: Safe
AÑO: 2012
DURACIÓN: 94 min.
PAÍS: USA
DIRECTOR: Boaz Yakin
GUIÓN: Boaz Yakin
REPARTO: Jason Statham, Catherine Chan, Robert John Burke, James Hong, Anson Mount, Chris Sarandon, Sándor Técsy, Joseph Sikora, Igor Jijikine, Reggie Lee, James Colby, Matt O'Toole, Jack Gwaltney, Barry Bradford, Jay Giannone, Danni Lang, Lyman Chen
PRODUCTORA: Automatik Entertainment / Current Entertainment / IM Global
GÉNERO: Acción | Crimen. Yakuza & Triada. Mafia
http://www.imdb.com/title/tt1656190/






Mei, una niña china que vive en los bajos fondos de Nueva York, tiene una mente prodigiosa para las matemáticas. Las triadas chinas, la mafia rusa e incluso la policía de NY la persiguen porque en su memoria guarda un código secreto de alta importancia para todos ellos. El destino hace que se cruce con Luke (Jason Stattham), un ex agente de élite que ha tocado fondo y se ha convertido en un fracasado. Juntos trazarán un plan para librarse de los perseguidores de la niña.
























La pelicula NO tiene ninguna marca... solo colocamos el nombre de este sitio en las capturas






Código:
General
Format                           : Matroska
Format version                   : Version 2
File size                        : 2.23 GiB
Duration                         : 1h 34mn
Overall bit rate                 : 3 385 Kbps
Movie name                       : www.club-hd.com
Encoded date                     : UTC 2012-10-29 22:19:01
Writing application              : mkvmerge v5.7.0 ('The Whirlwind') built on Jul  8 2012 20:08:51
Writing library                  : libebml v1.2.3 + libmatroska v1.3.0

Video
ID                               : 1
Format                           : AVC
Format/Info                      : Advanced Video Codec
Format profile                   : High@L4.1
Format settings, CABAC           : Yes
Format settings, ReFrames        : 8 frames
Codec ID                         : V_MPEG4/ISO/AVC
Duration                         : 1h 34mn
Bit rate                         : 2 745 Kbps
Width                            : 1 280 pixels
Height                           : 546 pixels
Display aspect ratio             : 2.35:1
Frame rate                       : 23.976 fps
Color space                      : YUV
Chroma subsampling               : 4:2:0
Bit depth                        : 8 bits
Scan type                        : Progressive
Bits/(Pixel*Frame)               : 0.164
Stream size                      : 1.76 GiB (79%)
Title                            : www.club-hd.com
Writing library                  : x264 core 125 r2208 d9d2288
Language                         : English
Default                          : Yes
Forced                           : No

Audio #1
ID                               : 2
Format                           : AC-3
Format/Info                      : Audio Coding 3
Mode extension                   : CM (complete main)
Codec ID                         : A_AC3
Duration                         : 1h 34mn
Bit rate mode                    : Constant
Bit rate                         : 192 Kbps
Channel(s)                       : 2 channels
Channel positions                : Front: L R
Sampling rate                    : 48.0 KHz
Bit depth                        : 16 bits
Compression mode                 : Lossy
Stream size                      : 129 MiB (6%)
Title                            : www.club-hd.com  >>  Latino
Language                         : Spanish
Default                          : Yes
Forced                           : No

Audio #2
ID                               : 3
Format                           : AC-3
Format/Info                      : Audio Coding 3
Mode extension                   : CM (complete main)
Codec ID                         : A_AC3
Duration                         : 1h 34mn
Bit rate mode                    : Constant
Bit rate                         : 448 Kbps
Channel(s)                       : 6 channels
Channel positions                : Front: L C R, Side: L R, LFE
Sampling rate                    : 48.0 KHz
Bit depth                        : 16 bits
Compression mode                 : Lossy
Stream size                      : 302 MiB (13%)
Title                            : www.club-hd.com  >>  Inglés
Language                         : English
Default                          : No
Forced                           : No

Text #1
ID                               : 4
Format                           : UTF-8
Codec ID                         : S_TEXT/UTF8
Codec ID/Info                    : UTF-8 Plain Text
Language                         : Spanish
Default                          : No
Forced                           : No

Text #2
ID                               : 5
Format                           : UTF-8
Codec ID                         : S_TEXT/UTF8
Codec ID/Info                    : UTF-8 Plain Text
Language                         : English
Default                          : No
Forced                           : No

Menu
00:00:00.000                     : en:Main Titles/The Long, Long Journey
00:06:39.274                     : en:Faking Success
00:10:33.466                     : en:Catching a Ride
00:15:41.482                     : en:Turning Back the Clock
00:20:48.456                     : en:Pull With the Cops
00:28:22.534                     : en:Scaling Heights
00:35:13.320                     : en:For Love or Food
00:40:29.510                     : en:Your Wonderful Position
00:46:43.175                     : en:Office Politics
00:51:50.566                     : en:Getting Publicity
00:58:31.883                     : en:Mystery Man
01:04:50.136                     : en:A Distraction
01:10:14.085                     : en:Going Higher
01:17:31.313                     : en:One More Floor
01:23:37.638                     : en:Man and Mouse
01:26:49.955                     : en:Love Is In the Air/The End










Enlaces de Mega y Fireload solo disponibles para Miembros VIP

Compra tu Membresía VIP y apoya a Club-HD!

ATENCIÓN! Tenemos TODO el material de Club-HD disponible por Mega y Fireload, enlaces 100% activos y online hasta la fecha

Llévate tus cuentas Mega PRO II gratis con tu membresía VIP!
Todos los posts vivos con links de Mega y Fireload.
Todo el material de Club-HD desbloqueado y sin publicidad.

Click Aquí para más información.




Enlaces de Mega y Fireload solo disponibles para Miembros VIP

Compra tu Membresía VIP y apoya a Club-HD!

ATENCIÓN! Tenemos TODO el material de Club-HD disponible por Mega y Fireload, enlaces 100% activos y online hasta la fecha

Llévate tus cuentas Mega PRO II gratis con tu membresía VIP!
Todos los posts vivos con links de Mega y Fireload.
Todo el material de Club-HD desbloqueado y sin publicidad.

Click Aquí para más información.


Para ver este contenido oculto, debes dar click en una de las siguientes reacciones : Like Like, Love Love, Haha Haha, Wow Wow, Sad Sad, Angry Angry

 
Última edición:

angumon30

Active member
Registro
27 Ago 2012
Mensajes
1.093
Reacciones
15
Puntos
38
Edad
41

Reputation:

que bueno.... por que en ingles no le entendi. muchas gracias
 

Mate78

Ladron de mi cerebro
Miembro del Staff
Súper Moderador
Registro
27 Ago 2012
Mensajes
1.236
Reacciones
920
Puntos
113

Reputation:

muchas graciassss , estaba esperandola en latino !!!
 

Usuarios Que Están Viendo Este Tema (Total: 1, Miembros: 0, Invitados: 1)

Arriba