Safe Haven (2013) m-720p BDRip Audio Inglés [Subt. Esp] (Romance)

Maestro Revolver

Administrador
Registro
9 Ago 2012
Mensajes
3.157
Reacciones (ptje)
54.886


Safe-Haven.jpg




FichaTecnica.jpg


TÍTULO ORIGINAL: Safe Haven
AÑO: 2013
DURACIÓN: 118 min.
PAÍS: USA
DIRECTOR: Lasse Hallström
GUIÓN: Leslie Bohem (Novela: Nicholas Sparks)
REPARTO: Julianne Hough, Josh Duhamel, Cobie Smulders, David Lyons, Irene Ziegler, Red West, Noah Lomax, Mimi Kirkland, Robin Mullins, Cullen Moss, Ric Reitz
PRODUCTORA: Nicholas Sparks Productions / Relativity Media / Temple Hill Entertainment
GÉNERO: Romance | Drama romántico
imdb-logo.png
: http://www.imdb.com/title/tt1702439/




Sinopsis.jpg


Katie (Julianne Hough), una bella joven con un oscuro pasado, llega al pequeño pueblo costero de Southport, en Carolina del Norte. Allí conoce al apuesto Alex (Josh Duhamel), un joven viudo de buen corazón, y a una viuda que le enseñará a enfrentarse a las pesadillas que la acechan. Adaptación de una nueva novela de Nicholas Sparks.




Trailer.jpg






Capturas.jpg


1.jpg


2.jpg


3.jpg


4.jpg


5.jpg


6.jpg


La pelicula NO tiene ninguna marca... solo colocamos el nombre de esta web en las capturas




MediaInfo.jpg


Código:
General
Format                                   : Matroska
Format version                           : Version 2
File size                                : 2.50 GiB
Duration                                 : 1h 55mn
Overall bit rate                         : 3 098 Kbps
Movie name                               : www.club-hd.com
Encoded date                             : UTC 2013-04-27 00:07:00
Writing application                      : mkvmerge v5.7.0 ('The Whirlwind') built on Jul  8 2012 20:08:51
Writing library                          : libebml v1.2.3 + libmatroska v1.3.0

Video
ID                                       : 1
Format                                   : AVC
Format/Info                              : Advanced Video Codec
Format profile                           : [email protected]
Format settings, CABAC                   : Yes
Format settings, ReFrames                : 9 frames
Codec ID                                 : V_MPEG4/ISO/AVC
Duration                                 : 1h 55mn
Bit rate                                 : 2 650 Kbps
Width                                    : 1 280 pixels
Height                                   : 534 pixels
Display aspect ratio                     : 2.40:1
Frame rate mode                          : Constant
Frame rate                               : 23.976 fps
Color space                              : YUV
Chroma subsampling                       : 4:2:0
Bit depth                                : 8 bits
Scan type                                : Progressive
Bits/(Pixel*Frame)                       : 0.162
Stream size                              : 2.09 GiB (84%)
Writing library                          : x264 core 130 r2273 b3065e6
Language                                 : English
Default                                  : Yes
Forced                                   : No

Audio
ID                                       : 2
Format                                   : AC-3
Format/Info                              : Audio Coding 3
Mode extension                           : CM (complete main)
Format settings, Endianness              : Big
Codec ID                                 : A_AC3
Duration                                 : 1h 55mn
Bit rate mode                            : Constant
Bit rate                                 : 448 Kbps
Channel(s)                               : 6 channels
Channel positions                        : Front: L C R, Side: L R, LFE
Sampling rate                            : 48.0 KHz
Bit depth                                : 16 bits
Compression mode                         : Lossy
Stream size                              : 371 MiB (14%)
Language                                 : English
Default                                  : Yes
Forced                                   : No

Text
ID                                       : 3
Format                                   : UTF-8
Codec ID                                 : S_TEXT/UTF8
Codec ID/Info                            : UTF-8 Plain Text
Language                                 : Spanish
Default                                  : Yes
Forced                                   : No

Menu
00:00:00.000                             : en:Chapter 1
00:06:46.948                             : en:Chapter 2
00:15:18.918                             : en:Chapter 3
00:21:47.139                             : en:Chapter 4
00:28:33.712                             : en:Chapter 5
00:35:33.882                             : en:Chapter 6
00:44:57.612                             : en:Chapter 7
00:55:11.642                             : en:Chapter 8
01:01:17.966                             : en:Chapter 9
01:08:29.522                             : en:Chapter 10
01:15:27.898                             : en:Chapter 11
01:20:51.430                             : en:Chapter 12
01:26:05.160                             : en:Chapter 13
01:32:22.412                             : en:Chapter 14
01:37:28.009                             : en:Chapter 15
01:45:23.651                             : en:Chapter 16




Descarga.jpg



MEGA.jpg

Tenemos TODO el material de Club-HD disponible por Mega, enlaces 100% activos y online hasta la fecha

Llévate tus cuentas Mega PRO III gratis con tu membresía VIP!
Todos los posts vivos con links de Mega.
Todo el material de Club-HD desbloqueado y sin publicidad.

Obtén más información sobre nuestras Membresías VIP



UPLOADED_BANNER.png

Para ver este contenido oculto, debes dar click en el botón"Like", o cualquiera de las otras reacciones:

Me Gusta Me Gusta, Me Encanta Me Encanta, Jaja Jaja, Wow Wow, Triste Triste, Molesto Molesto

 
Última edición por un moderador:
Gracias! Parece buen drama..

Saludos Revolver! victory
 
no es mi genero...pero tengo adeptos para ese cine...jajaj. MUCHAS GRACIAS COMO SIEMPRE...ESTRENOS DE FINDE!!!!Pl4yb0y
 
Volver