Sammy's Great Escape (2012) m-720p Dual Latino-Inglés [Subt. Esp] (Animación)

Maestro Revolver

Well-known member
Miembro del Staff
Administrador
Registro
9 Ago 2012
Mensajes
3.569
Reacciones
59.341
Puntos
113

Reputation:









TÍTULO ORIGINAL: Sammy's avonturen 2 (Sammy's Great Escape 3D)
AÑO: 2012
DURACIÓN: 92 min.
PAÍS: Bélgica
DIRECTOR: Ben Stassen
GUIÓN: Domonic Paris
REPARTO: Animation
PRODUCTORA: Illuminata Pictures / Motion Investment Group / nWave Pictures
GÉNERO: Animación. Aventuras. Infantil | Aventuras marinas. 3-D. Secuela
: http://www.imdb.com/title/tt2288005/






Sammy y su mejor amigo, Ray, están listos para pasar el testigo a la siguiente generación, encarnada en los recién nacidos Ricky y Ella. Apenas empiezan a dar sus primeros aleteos en el gran océano, unos pescadores furtivos capturan a Sammy y Ray, y los envían a un acuario en Dubai. Sin perder un instante, ambos organizan una especie de ejército y elaboran un plan de fuga. Al otro lado de la barrera, Ricky y Ella preparan otro plan para salvar a sus padres..
























La pelicula NO tiene ninguna marca... solo colocamos el nombre de esta web en las capturas






Código:
General
Format                                   : Matroska
Format version                           : Version 2
File size                                : 2.25 GiB
Duration                                 : 1h 32mn
Overall bit rate                         : 3 465 Kbps
Movie name                               : www.club-hd.com
Encoded date                             : UTC 2013-04-01 16:00:54
Writing application                      : mkvmerge v5.7.0 ('The Whirlwind') built on Jul  8 2012 20:08:51
Writing library                          : libebml v1.2.3 + libmatroska v1.3.0

Video
ID                                       : 1
Format                                   : AVC
Format/Info                              : Advanced Video Codec
Format profile                           : High@L4.1
Format settings, CABAC                   : Yes
Format settings, ReFrames                : 5 frames
Codec ID                                 : V_MPEG4/ISO/AVC
Duration                                 : 1h 32mn
Bit rate                                 : 2 569 Kbps
Width                                    : 1 280 pixels
Height                                   : 720 pixels
Display aspect ratio                     : 16:9
Frame rate mode                          : Constant
Frame rate                               : 23.976 fps
Color space                              : YUV
Chroma subsampling                       : 4:2:0
Bit depth                                : 8 bits
Scan type                                : Progressive
Bits/(Pixel*Frame)                       : 0.116
Stream size                              : 1.62 GiB (72%)
Title                                    : www.club-hd.com
Writing library                          : x264 core 129 r2230 1cffe9f
Language                                 : English
Default                                  : Yes
Forced                                   : No

Audio #1
ID                                       : 2
Format                                   : AC-3
Format/Info                              : Audio Coding 3
Mode extension                           : CM (complete main)
Format settings, Endianness              : Big
Codec ID                                 : A_AC3
Duration                                 : 1h 32mn
Bit rate mode                            : Constant
Bit rate                                 : 448 Kbps
Channel(s)                               : 6 channels
Channel positions                        : Front: L C R, Side: L R, LFE
Sampling rate                            : 48.0 KHz
Bit depth                                : 16 bits
Compression mode                         : Lossy
Delay relative to video                  : 24ms
Stream size                              : 298 MiB (13%)
Title                                    : www.club-hd.com  >>  Latino
Language                                 : Spanish
Default                                  : Yes
Forced                                   : No

Audio #2
ID                                       : 3
Format                                   : AC-3
Format/Info                              : Audio Coding 3
Mode extension                           : CM (complete main)
Format settings, Endianness              : Big
Codec ID                                 : A_AC3
Duration                                 : 1h 32mn
Bit rate mode                            : Constant
Bit rate                                 : 448 Kbps
Channel(s)                               : 6 channels
Channel positions                        : Front: L C R, Side: L R, LFE
Sampling rate                            : 48.0 KHz
Bit depth                                : 16 bits
Compression mode                         : Lossy
Stream size                              : 298 MiB (13%)
Title                                    : www.club-hd.com  >>  Inglés
Language                                 : English
Default                                  : No
Forced                                   : No

Text
ID                                       : 4
Format                                   : UTF-8
Codec ID                                 : S_TEXT/UTF8
Codec ID/Info                            : UTF-8 Plain Text
Language                                 : Spanish
Default                                  : No
Forced                                   : No

Menu
00:00:00.000                             : en:00:00:00.000
00:12:09.854                             : en:00:12:09.854
00:21:48.224                             : en:00:21:48.224
00:34:51.548                             : en:00:34:51.548
00:45:52.375                             : en:00:45:52.375
00:57:20.687                             : en:00:57:20.687
01:07:48.189                             : en:01:07:48.189
01:20:06.260                             : en:01:20:06.260








Enlaces de Mega y Fireload solo disponibles para Miembros VIP

Compra tu Membresía VIP y apoya a Club-HD!

ATENCIÓN! Tenemos TODO el material de Club-HD disponible por Mega y Fireload, enlaces 100% activos y online hasta la fecha

Llévate tus cuentas Mega PRO II gratis con tu membresía VIP!
Todos los posts vivos con links de Mega y Fireload.
Todo el material de Club-HD desbloqueado y sin publicidad.

Click Aquí para más información.



Para ver este contenido oculto, debes dar click en una de las siguientes reacciones : Like Like, Love Love, Haha Haha, Wow Wow, Sad Sad, Angry Angry

 
Última edición por un moderador:

zacygal

Well-known member
Registro
3 Sep 2012
Mensajes
1.515
Reacciones
1.536
Puntos
113
Edad
49

Reputation:

mi hija sta re feliz siempre nos traes lo ultimo y mejor
 

Usuarios Que Están Viendo Este Tema (Total: 1, Miembros: 0, Invitados: 1)

Arriba