Santana - Greatest Hits: Live at Montreux (2011) 720p BDRip [AC3 5.1] [DTS] (Concierto)

Maestro Revolver

Well-known member
Miembro del Staff
Administrador
Registro
9 Ago 2012
Mensajes
3.569
Reacciones
59.480
Puntos
113

Reputation:









Titulo: Santana - Greatest Hits: Live at Montreux 2011
Interprete: Carlos Santana
Artista: Carlos Santana
Año: 2011
Caracteristicas: Interview, Behind the Scenes




Durante los últimos 45 años, Carlos Augusto Alves Santana ha pasado de jugar en la Santana Blues Band en el circuito de San Francisco club a convertirse en uno de los músicos más influyentes y reverenciados en la historia de la música latina. Su mezcla suave y espiritual de América, el rock, el jazz y el blues nunca ha pasado de moda como su trayectoria musical ha reflejado sus reflexiones filosóficas.

Santana la banda ha vendido más de 90 millones de discos y Carlos fue incluido en el Rock and Roll Hall de la Fama en 1998. Live at Montreux 2011 es una más de tres horas de carrera que abarca la celebración del increíble legado musical de Santana. Sólo ver el resumen establecido para este concierto increíble:
[GOOGLE TRADUCTOR]



Track List:

1. Spark of the Divine
2. SOCC
3. Back in Black
4. Singing Winds, Crying Beasts
5. Black Magic Woman / Gypsy Queen
6. Oye Como Va
7. Maria, Maria
8. Foo Foo
9. Corazon Espinado / Guajira
10. Benny and Cindy Solo
11. Jingo
12. Carlos Speaks / Novus
13. Europa (Earth’s Cry, Heaven’s Smile) / I Want You
14. Batuka / No One to Depend On
15. Duende / Open Invitation
16. Make Somebody Happy / Right On Be Free
17. Evil Ways / A Love Supreme
18. Sunshine of Your Love
19. Smooth / Dame Tu Amor
20. Soul Sacrifice / Dennis Drum Solo
21. Samba Pa Ti
22. Into the Night
23. Love, Peace and Happiness / Freedom.






























Código:
General
Format                           : Matroska
Format version                   : Version 2
File size                        : 9.49 GiB
Duration                         : 2h 47mn
Overall bit rate                 : 8 111 Kbps
Movie name                       : www.club-hd.com
Encoded date                     : UTC 2012-11-09 02:29:33
Writing application              : mkvmerge v5.7.0 ('The Whirlwind') built on Jul  8 2012 20:08:51
Writing library                  : libebml v1.2.3 + libmatroska v1.3.0

Video
ID                               : 1
Format                           : AVC
Format/Info                      : Advanced Video Codec
Format profile                   : High@L4.1
Format settings, CABAC           : Yes
Format settings, ReFrames        : 8 frames
Codec ID                         : V_MPEG4/ISO/AVC
Duration                         : 2h 47mn
Bit rate                         : 5 961 Kbps
Width                            : 1 280 pixels
Height                           : 720 pixels
Display aspect ratio             : 16:9
Frame rate                       : 29.970 fps
Color space                      : YUV
Chroma subsampling               : 4:2:0
Bit depth                        : 8 bits
Scan type                        : Progressive
Bits/(Pixel*Frame)               : 0.216
Stream size                      : 6.79 GiB (72%)
Title                            : www.club-hd.com
Writing library                  : x264 core 116 r2074 2641b9e
Language                         : English
Default                          : Yes
Forced                           : No

Audio #1
ID                               : 2
Format                           : AC-3
Format/Info                      : Audio Coding 3
Mode extension                   : CM (complete main)
Codec ID                         : A_AC3
Duration                         : 2h 47mn
Bit rate mode                    : Constant
Bit rate                         : 640 Kbps
Channel(s)                       : 6 channels
Channel positions                : Front: L C R, Side: L R, LFE
Sampling rate                    : 48.0 KHz
Bit depth                        : 16 bits
Compression mode                 : Lossy
Stream size                      : 767 MiB (8%)
Title                            : www.club-hd.com  >>  Inglés AC3 5.1
Language                         : English
Default                          : Yes
Forced                           : No

Audio #2
ID                               : 3
Format                           : DTS
Format/Info                      : Digital Theater Systems
Codec ID                         : A_DTS
Duration                         : 2h 47mn
Bit rate mode                    : Constant
Bit rate                         : 1 510 Kbps
Channel(s)                       : 6 channels
Channel positions                : Front: L C R, Side: L R, LFE
Sampling rate                    : 48.0 KHz
Bit depth                        : 24 bits
Compression mode                 : Lossy
Stream size                      : 1.77 GiB (19%)
Title                            : www.club-hd.com  >>  Inglés DTS 5.1
Language                         : English
Default                          : No
Forced                           : No

Menu
00:00:00.000                     : :00:00:00.000
00:03:18.932                     : :00:03:18.932
00:05:41.074                     : :00:05:41.074
00:10:15.014                     : :00:10:15.014
00:14:19.992                     : :00:14:19.992
00:21:29.688                     : :00:21:29.688
00:27:18.570                     : :00:27:18.570
00:33:57.035                     : :00:33:57.035
00:40:16.014                     : :00:40:16.014
00:46:53.044                     : :00:46:53.044
00:54:36.173                     : :00:54:36.173
01:03:52.996                     : :01:03:52.996
01:06:08.531                     : :01:06:08.531
01:14:10.212                     : :01:14:10.212
01:23:42.050                     : :01:23:42.050
01:33:35.877                     : :01:33:35.877
01:48:30.104                     : :01:48:30.104
01:57:47.494                     : :01:57:47.494
02:02:17.997                     : :02:02:17.997
02:12:17.696                     : :02:12:17.696
02:23:47.252                     : :02:23:47.252
02:30:10.235                     : :02:30:10.235
02:35:27.451                     : :02:35:27.451










Enlaces de Mega y Fireload solo disponibles para Miembros VIP

Compra tu Membresía VIP y apoya a Club-HD!

ATENCIÓN! Tenemos TODO el material de Club-HD disponible por Mega y Fireload, enlaces 100% activos y online hasta la fecha

Llévate tus cuentas Mega PRO II gratis con tu membresía VIP!
Todos los posts vivos con links de Mega y Fireload.
Todo el material de Club-HD desbloqueado y sin publicidad.

Click Aquí para más información.




Enlaces de Mega y Fireload solo disponibles para Miembros VIP

Compra tu Membresía VIP y apoya a Club-HD!

ATENCIÓN! Tenemos TODO el material de Club-HD disponible por Mega y Fireload, enlaces 100% activos y online hasta la fecha

Llévate tus cuentas Mega PRO II gratis con tu membresía VIP!
Todos los posts vivos con links de Mega y Fireload.
Todo el material de Club-HD desbloqueado y sin publicidad.

Click Aquí para más información.


Para ver este contenido oculto, debes dar click en una de las siguientes reacciones : Like Like, Love Love, Haha Haha, Wow Wow, Sad Sad, Angry Angry
 
Última edición:

Sasukefall

New member
Registro
28 Sep 2012
Mensajes
751
Reacciones
42
Puntos
0
Ubicación
Portuguesa

Reputation:

oh se ve bueno lo bajare para darselo a mi madre le encanta santana
gracias Desc_g_
 

adolfo967

New member
Registro
28 Ago 2012
Mensajes
48
Reacciones
1
Puntos
0

Reputation:

once again you are awesome!!!!!!Tb_up3Tb_up3Tb_up3Tb_up3Tb_up3
 

lordvader

Active member
Miembro VIP
Registro
28 Ago 2012
Mensajes
438
Reacciones
29
Puntos
28
Edad
50

Reputation:

buen aporte muchas gracias!!
 

Usuarios Que Están Viendo Este Tema (Total: 1, Miembros: 0, Invitados: 1)

Arriba