• Buenos dias amigos del club. Les queremos avisar que ya recuperamos el acceso a las webs de las Membresías VIP y del Paste. Asi que ya pueden comprar sus membresías y descargar todos los estrenos nuevamente.

Saving Mr. Banks (2013) 1080p BDRip Dual Latino-Inglés [Subt. Esp] (Drama)

Maestro Revolver

Administrador
Registro
9 Ago 2012
Mensajes
3.157
Reacciones (ptje)
55.317


Saving-Mr-Banks-1080p.jpg





FichaTecnica.jpg


TÍTULO ORIGINAL: Saving Mr. Banks
AÑO: 2013
DURACIÓN: 125 min.
PAÍS: USA
DIRECTOR: John Lee Hancock
GUIÓN: Sue Smith, Kelly Marcel
REPARTO: Emma Thompson, Tom Hanks, Colin Farrell, Paul Giamatti, Jason Schwartzman, Bradley Whitford, Ruth Wilson, B.J. Novak, Rachel Griffiths, Kathy Baker
PRODUCTORA: Walt Disney Pictures / Ruby Films / Essential Media & Entertainment
GÉNERO: Drama | Cine dentro del cine. Literatura. Basado en hechos reales. Años 60. Infancia
imdb-logo.png
: http://www.imdb.com/title/tt2140373/

PREMIOS: 2013: Oscar: Nominada a Mejor banda sonora
2013: Globos de Oro: Nominada a Mejor actriz (Thompson)
2013: Premios BAFTA: 4 nominaciones, incluyendo Mejor film británico
2013: Critics Choice: 4 nominaciones, incluyendo Mejor película
2013: National Board of Review (NBR): Top 10 y Mejor actriz (Thompson)
2013: American Film Institute: Top 10 - Mejores películas del año
2013: Satellite Awards: 6 nominaciones, incluyendo Mejor película y actriz (Thompson)




Sinopsis.jpg


Durante catorce años, Walt Disney (Tom Hanks) intentó sin descanso que la escritora australiana P.L. Travers (Emma Thompson) le cediera los derechos cinematográficos de su primera y más popular novela, 'Mary Poppins', que finalmente fue llevada a la gran pantalla en 1964.




Trailer.jpg






Capturas.jpg


1.jpg


2.jpg


3.jpg


4.jpg


5.jpg


6.jpg


La pelicula NO tiene ninguna marca... solo colocamos el nombre de esta web en las capturas




MediaInfo.jpg


Código:
General
Format                                   : Matroska
Format version                           : Version 2
File size                                : 9.86 GiB
Duration                                 : 2h 5mn
Overall bit rate                         : 11.2 Mbps
Movie name                               : www.club-hd.com
Encoded date                             : UTC 2014-03-02 14:31:26
Writing application                      : mkvmerge v5.7.0 ('The Whirlwind') built on Jul  8 2012 20:08:51
Writing library                          : libebml v1.2.3 + libmatroska v1.3.0

Video
ID                                       : 1
Format                                   : AVC
Format/Info                              : Advanced Video Codec
Format profile                           : [email protected]
Format settings, CABAC                   : Yes
Format settings, ReFrames                : 5 frames
Muxing mode                              : Header stripping
Codec ID                                 : V_MPEG4/ISO/AVC
Duration                                 : 2h 5mn
Bit rate                                 : 8 449 Kbps
Width                                    : 1 920 pixels
Height                                   : 800 pixels
Display aspect ratio                     : 2.40:1
Frame rate mode                          : Constant
Frame rate                               : 23.976 fps
Color space                              : YUV
Chroma subsampling                       : 4:2:0
Bit depth                                : 8 bits
Scan type                                : Progressive
Bits/(Pixel*Frame)                       : 0.229
Stream size                              : 7.22 GiB (73%)
Title                                    : www.club-hd.com
Writing library                          : x264 core 140 r2377 1ca7bb9
Language                                 : English
Default                                  : Yes
Forced                                   : No

Audio #1
ID                                       : 2
Format                                   : AC-3
Format/Info                              : Audio Coding 3
Mode extension                           : CM (complete main)
Format settings, Endianness              : Big
Muxing mode                              : Header stripping
Codec ID                                 : A_AC3
Duration                                 : 2h 5mn
Bit rate mode                            : Constant
Bit rate                                 : 640 Kbps
Channel(s)                               : 6 channels
Channel positions                        : Front: L C R, Side: L R, LFE
Sampling rate                            : 48.0 KHz
Bit depth                                : 16 bits
Compression mode                         : Lossy
Stream size                              : 575 MiB (6%)
Title                                    : www.club-hd.com  -->>  Latino AC3 5.1
Language                                 : Spanish
Default                                  : Yes
Forced                                   : No

Audio #2
ID                                       : 3
Format                                   : AC-3
Format/Info                              : Audio Coding 3
Mode extension                           : CM (complete main)
Format settings, Endianness              : Big
Muxing mode                              : Header stripping
Codec ID                                 : A_AC3
Duration                                 : 2h 5mn
Bit rate mode                            : Constant
Bit rate                                 : 640 Kbps
Channel(s)                               : 6 channels
Channel positions                        : Front: L C R, Side: L R, LFE
Sampling rate                            : 48.0 KHz
Bit depth                                : 16 bits
Compression mode                         : Lossy
Stream size                              : 575 MiB (6%)
Title                                    : www.club-hd.com  -->>  Inglés AC3 5.1
Language                                 : English
Default                                  : No
Forced                                   : No

Audio #3
ID                                       : 4
Format                                   : DTS
Format/Info                              : Digital Theater Systems
Mode                                     : 16
Format settings, Endianness              : Big
Muxing mode                              : Header stripping
Codec ID                                 : A_DTS
Duration                                 : 2h 5mn
Bit rate mode                            : Constant
Bit rate                                 : 1 509 Kbps
Channel(s)                               : 6 channels
Channel positions                        : Front: L C R, Side: L R, LFE
Sampling rate                            : 48.0 KHz
Bit depth                                : 24 bits
Compression mode                         : Lossy
Stream size                              : 1.32 GiB (13%)
Title                                    : www.club-hd.com  -->>  Inglés DTS 5.1
Language                                 : English
Default                                  : No
Forced                                   : No

Text #1
ID                                       : 5
Format                                   : UTF-8
Codec ID                                 : S_TEXT/UTF8
Codec ID/Info                            : UTF-8 Plain Text
Title                                    : Forzados
Language                                 : Spanish
Default                                  : Yes
Forced                                   : No

Text #2
ID                                       : 6
Format                                   : UTF-8
Codec ID                                 : S_TEXT/UTF8
Codec ID/Info                            : UTF-8 Plain Text
Title                                    : Completos
Language                                 : Spanish
Default                                  : No
Forced                                   : No

Menu
00:00:00.000                             : en:00:00:00.000
00:06:41.401                             : en:00:06:41.401
00:10:11.194                             : en:00:10:11.194
00:16:28.404                             : en:00:16:28.404
00:26:07.274                             : en:00:26:07.274
00:29:33.981                             : en:00:29:33.981
00:32:43.170                             : en:00:32:43.170
00:35:58.782                             : en:00:35:58.782
00:40:19.292                             : en:00:40:19.292
00:45:10.666                             : en:00:45:10.666
00:48:48.926                             : en:00:48:48.926
00:53:28.205                             : en:00:53:28.205
00:57:06.423                             : en:00:57:06.423
01:07:23.373                             : en:01:07:23.373
01:12:46.737                             : en:01:12:46.737
01:15:47.752                             : en:01:15:47.752
01:19:05.908                             : en:01:19:05.908
01:24:02.496                             : en:01:24:02.496
01:28:41.066                             : en:01:28:41.066
01:32:49.814                             : en:01:32:49.814
01:38:12.178                             : en:01:38:12.178
01:47:33.572                             : en:01:47:33.572
01:53:46.486                             : en:01:53:46.486
01:58:44.909                             : en:01:58:44.909




Descarga.jpg



MEGA.jpg

Tenemos TODO el material de Club-HD disponible por Mega, enlaces 100% activos y online hasta la fecha

Llévate tus cuentas Mega PRO III gratis con tu membresía VIP!
Todos los posts vivos con links de Mega.
Todo el material de Club-HD desbloqueado y sin publicidad.

Obtén más información sobre nuestras Membresías VIP



UPLOADED_BANNER.png

Para ver este contenido oculto, debes dar click en el botón"Like", o cualquiera de las otras reacciones:

Me Gusta Me Gusta, Me Encanta Me Encanta, Jaja Jaja, Wow Wow, Triste Triste, Molesto Molesto
 
Última edición por un moderador:
una pelicula de Tom Hanks es un deleite para la vista y el cerebro sera un placer tenerla en mi lista
 
Muchas Gracias!!!


Doctor Jason y Su Data Inútil:

Sabías Que?........A pesar de que la película "Mary Poppins" ha fascinado y lo sigue haciendo a unas cuantas generaciones, Pamela Travers la odió con todo su ser, al punto de no dejar que adaptasen ninguna de las secuelas. Pnsand0........y pensar que ahora, cualquiera muere por que le adapten sus libros y hagan una franquicia de nunca acabar con ellos. :D


Saludos.bye
 
inpresionante de verdad., grandes estrenos. muchas grasias
 
Volver