• Este aviso va dirigido a todos los nuevos miembros recien llegados a Club-HD. Les recordamos que la direccion URL de este sitio web es , asi que deben acceder únicamente por esta URL. Sean todos bienvenidos al Club!

Saving Zoe (2019) 1080p AMZN WEB-DL Dual Latino-Inglés [Subt. Esp] (Drama. Crimen)

Dante Inferno

🔥Dante Inferno🔥
Miembro del Staff
Moderador
Uploader
Registrado
24 May 2016
Mensajes
547
Puntos de reacción
10,351
Puntos
93
Ubicación
Argentina
Sitio web
club-hd.com
Saving Zoe 2019



SINOPSIS

Ha pasado un año desde que su hermana fuese asesinada, y Echo sigue sin levantar cabeza. Con su madre sumida en una depresión y ante la ausencia de su padre, que prefiere trabajar a soportar el ambiente en casa, la joven muchacha se ve obligada a ser el sostén de una familia que está a punto de quebrar. Un día, a poco de haber comenzado su primer año como universitaria, recibe un regalo inesperado: el novio de Zoe le entrega el diario de su hermana fallecida. Aunque al principio decide no leerlo, pronto cae en la tentación de conocer su vida secreta. (FILMAFFINITY)

MÁS INFORMACIÓN




TRAILER



CAPTURAS

Saving Zoe 2019


Saving Zoe 2019



MEDIAINFO

Código:
General
Complete name                            : Saving Zoe (2019) 1080p AMZN WEB-DL Dual Latino-Inglés [Subt. Esp].mkv
Format                                   : Matroska
Format version                           : Version 4
File size                                : 5.04 GiB
Duration                                 : 1 h 35 min
Overall bit rate                         : 7 575 kb/s
Movie name                               : Saving Zoe (2019) 1080p AMZN WEB-DL Dual Latino-Inglés [Subt. Esp] [www.club-hd.com]
Encoded date                             : UTC 2020-04-02 18:48:39
Writing application                      : mkvmerge v27.0.0 ('Metropolis') 64-bit
Writing library                          : libebml v1.3.6 + libmatroska v1.4.9

Video
ID                                       : 1
Format                                   : AVC
Format/Info                              : Advanced Video Codec
Format profile                           : High@L4
Format settings                          : CABAC / 4 Ref Frames
Format settings, CABAC                   : Yes
Format settings, Reference frames        : 4 frames
Codec ID                                 : V_MPEG4/ISO/AVC
Duration                                 : 1 h 35 min
Bit rate mode                            : Constant
Bit rate                                 : 6 677 kb/s
Nominal bit rate                         : 10 000 kb/s
Width                                    : 1 920 pixels
Height                                   : 800 pixels
Display aspect ratio                     : 2.40:1
Frame rate mode                          : Constant
Frame rate                               : 23.976 (24000/1001) FPS
Color space                              : YUV
Chroma subsampling                       : 4:2:0
Bit depth                                : 8 bits
Scan type                                : Progressive
Bits/(Pixel*Frame)                       : 0.181
Stream size                              : 4.44 GiB (88%)
Title                                    : Saving Zoe (2019) 1080p AMZN WEB-DL Dual Latino-Inglés [Subt. Esp]
Language                                 : English
Default                                  : Yes
Forced                                   : No
Color range                              : Limited
Color primaries                          : BT.709
Transfer characteristics                 : BT.709
Matrix coefficients                      : BT.709

Audio #1
ID                                       : 2
Format                                   : AC-3
Format/Info                              : Audio Coding 3
Commercial name                          : Dolby Digital
Codec ID                                 : A_AC3
Duration                                 : 1 h 35 min
Bit rate mode                            : Constant
Bit rate                                 : 256 kb/s
Channel(s)                               : 2 channels
Channel layout                           : L R
Sampling rate                            : 48.0 kHz
Frame rate                               : 31.250 FPS (1536 SPF)
Compression mode                         : Lossy
Stream size                              : 174 MiB (3%)
Title                                    : Español Latino
Language                                 : Spanish
Service kind                             : Complete Main
Default                                  : Yes
Forced                                   : Yes

Audio #2
ID                                       : 3
Format                                   : E-AC-3
Format/Info                              : Enhanced AC-3
Commercial name                          : Dolby Digital Plus
Codec ID                                 : A_EAC3
Duration                                 : 1 h 35 min
Bit rate mode                            : Constant
Bit rate                                 : 640 kb/s
Channel(s)                               : 6 channels
Channel layout                           : L R C LFE Ls Rs
Sampling rate                            : 48.0 kHz
Frame rate                               : 31.250 FPS (1536 SPF)
Compression mode                         : Lossy
Stream size                              : 436 MiB (8%)
Title                                    : Inglés
Language                                 : English
Service kind                             : Complete Main
Default                                  : No
Forced                                   : No

Text #1
ID                                       : 4
Format                                   : UTF-8
Codec ID                                 : S_TEXT/UTF8
Codec ID/Info                            : UTF-8 Plain Text
Duration                                 : 1 h 30 min
Bit rate                                 : 44 b/s
Count of elements                        : 983
Stream size                              : 29.3 KiB (0%)
Title                                    : Subtítulos Español
Language                                 : Spanish
Default                                  : No
Forced                                   : No

Text #2
ID                                       : 5
Format                                   : UTF-8
Codec ID                                 : S_TEXT/UTF8
Codec ID/Info                            : UTF-8 Plain Text
Duration                                 : 1 h 30 min
Bit rate                                 : 0 b/s
Count of elements                        : 14
Stream size                              : 488 Bytes (0%)
Title                                    : Subtítulos Español Forzados
Language                                 : Spanish
Default                                  : Yes
Forced                                   : No

Menu
00:00:00.000                             : en:Studio Logo
00:00:23.000                             : en:Title Sequence
00:01:00.000                             : en:Echo wakes up to go to school
00:03:04.000                             : en:Abby and Echo grab lunch together
00:06:36.000                             : en:Life at home
00:10:08.000                             : en:Marc's new car yields a discovery
00:17:36.000                             : en:Echo meets with a psychiatrist
00:20:02.000                             : en:Echo keeps reading Zoe's diary
00:22:04.000                             : en:Echo sees Marc at lunch
00:24:48.000                             : en:Echo and Abby go to a party
00:28:43.000                             : en:Zoe starts her part time job
00:30:54.000                             : en:Zoe brings Marc to Theresa's party
00:34:01.000                             : en:Echo goes to her first high school dance
00:41:05.000                             : en:Zoe works toward a modeling career
00:44:42.000                             : en:Echo remembers something
00:47:19.000                             : en:Echo comes to the party
00:50:52.000                             : en:Echo follows in Zoe's tracks
00:54:40.000                             : en:Echo finds out what Zoe left
01:00:38.000                             : en:Another session with the psychiatrist
01:03:08.000                             : en:Echo tells her plan to Marc
01:05:31.000                             : en:Jason invites Echo to his place
01:10:42.000                             : en:Marc distracts Jason
01:14:16.000                             : en:Jason offers a deal
01:18:06.000                             : en:Jason and Tom argue about what to do next
01:21:38.000                             : en:Echo tries to escape
01:23:27.000                             : en:The truth always manages to come out
01:28:34.000                             : en:It's time to move on
01:30:44.000                             : en:End Credits

CONTRASEÑA




DESCARGAR

Todos los links son Intercambiables




Enlaces de Mega y Google Drive solo disponibles para Miembros VIP

Compra tu Membresía VIP y apoya a Club-HD!

ATENCIÓN! Tenemos TODO el material de Club-HD disponible por Mega y Google Drive, enlaces 100% activos y online hasta la fecha

Llévate tus cuentas Mega PRO II gratis con tu membresía VIP!
Todos los posts vivos con links de Mega y Google Drive.
Todo el material de Club-HD desbloqueado y sin publicidad.

Click Aquí para más información.



Enlaces de Mega y Google Drive solo disponibles para Miembros VIP

Compra tu Membresía VIP y apoya a Club-HD!

ATENCIÓN! Tenemos TODO el material de Club-HD disponible por Mega y Google Drive, enlaces 100% activos y online hasta la fecha

Llévate tus cuentas Mega PRO II gratis con tu membresía VIP!
Todos los posts vivos con links de Mega y Google Drive.
Todo el material de Club-HD desbloqueado y sin publicidad.

Click Aquí para más información.



Para ver este contenido oculto, debes dar click en una de las siguientes reacciones: Like Like, Love Love, Haha Haha, Wow Wow, Sad Sad, Angry Angry



Para ver este contenido oculto, debes dar click en una de las siguientes reacciones: Like Like, Love Love, Haha Haha, Wow Wow, Sad Sad, Angry Angry



Para ver este contenido oculto, debes dar click en una de las siguientes reacciones: Like Like, Love Love, Haha Haha, Wow Wow, Sad Sad, Angry Angry
 

opv_2011

Active member
Registrado
3 Feb 2016
Mensajes
722
Puntos de reacción
41
Puntos
28
Edad
46
Saving Zoe 2019



SINOPSIS

Ha pasado un año desde que su hermana fuese asesinada, y Echo sigue sin levantar cabeza. Con su madre sumida en una depresión y ante la ausencia de su padre, que prefiere trabajar a soportar el ambiente en casa, la joven muchacha se ve obligada a ser el sostén de una familia que está a punto de quebrar. Un día, a poco de haber comenzado su primer año como universitaria, recibe un regalo inesperado: el novio de Zoe le entrega el diario de su hermana fallecida. Aunque al principio decide no leerlo, pronto cae en la tentación de conocer su vida secreta. (FILMAFFINITY)

MÁS INFORMACIÓN




TRAILER



CAPTURAS

Saving Zoe 2019


Saving Zoe 2019



MEDIAINFO

Código:
General
Complete name                            : Saving Zoe (2019) 1080p AMZN WEB-DL Dual Latino-Inglés [Subt. Esp].mkv
Format                                   : Matroska
Format version                           : Version 4
File size                                : 5.04 GiB
Duration                                 : 1 h 35 min
Overall bit rate                         : 7 575 kb/s
Movie name                               : Saving Zoe (2019) 1080p AMZN WEB-DL Dual Latino-Inglés [Subt. Esp] [www.club-hd.com]
Encoded date                             : UTC 2020-04-02 18:48:39
Writing application                      : mkvmerge v27.0.0 ('Metropolis') 64-bit
Writing library                          : libebml v1.3.6 + libmatroska v1.4.9

Video
ID                                       : 1
Format                                   : AVC
Format/Info                              : Advanced Video Codec
Format profile                           : High@L4
Format settings                          : CABAC / 4 Ref Frames
Format settings, CABAC                   : Yes
Format settings, Reference frames        : 4 frames
Codec ID                                 : V_MPEG4/ISO/AVC
Duration                                 : 1 h 35 min
Bit rate mode                            : Constant
Bit rate                                 : 6 677 kb/s
Nominal bit rate                         : 10 000 kb/s
Width                                    : 1 920 pixels
Height                                   : 800 pixels
Display aspect ratio                     : 2.40:1
Frame rate mode                          : Constant
Frame rate                               : 23.976 (24000/1001) FPS
Color space                              : YUV
Chroma subsampling                       : 4:2:0
Bit depth                                : 8 bits
Scan type                                : Progressive
Bits/(Pixel*Frame)                       : 0.181
Stream size                              : 4.44 GiB (88%)
Title                                    : Saving Zoe (2019) 1080p AMZN WEB-DL Dual Latino-Inglés [Subt. Esp]
Language                                 : English
Default                                  : Yes
Forced                                   : No
Color range                              : Limited
Color primaries                          : BT.709
Transfer characteristics                 : BT.709
Matrix coefficients                      : BT.709

Audio #1
ID                                       : 2
Format                                   : AC-3
Format/Info                              : Audio Coding 3
Commercial name                          : Dolby Digital
Codec ID                                 : A_AC3
Duration                                 : 1 h 35 min
Bit rate mode                            : Constant
Bit rate                                 : 256 kb/s
Channel(s)                               : 2 channels
Channel layout                           : L R
Sampling rate                            : 48.0 kHz
Frame rate                               : 31.250 FPS (1536 SPF)
Compression mode                         : Lossy
Stream size                              : 174 MiB (3%)
Title                                    : Español Latino
Language                                 : Spanish
Service kind                             : Complete Main
Default                                  : Yes
Forced                                   : Yes

Audio #2
ID                                       : 3
Format                                   : E-AC-3
Format/Info                              : Enhanced AC-3
Commercial name                          : Dolby Digital Plus
Codec ID                                 : A_EAC3
Duration                                 : 1 h 35 min
Bit rate mode                            : Constant
Bit rate                                 : 640 kb/s
Channel(s)                               : 6 channels
Channel layout                           : L R C LFE Ls Rs
Sampling rate                            : 48.0 kHz
Frame rate                               : 31.250 FPS (1536 SPF)
Compression mode                         : Lossy
Stream size                              : 436 MiB (8%)
Title                                    : Inglés
Language                                 : English
Service kind                             : Complete Main
Default                                  : No
Forced                                   : No

Text #1
ID                                       : 4
Format                                   : UTF-8
Codec ID                                 : S_TEXT/UTF8
Codec ID/Info                            : UTF-8 Plain Text
Duration                                 : 1 h 30 min
Bit rate                                 : 44 b/s
Count of elements                        : 983
Stream size                              : 29.3 KiB (0%)
Title                                    : Subtítulos Español
Language                                 : Spanish
Default                                  : No
Forced                                   : No

Text #2
ID                                       : 5
Format                                   : UTF-8
Codec ID                                 : S_TEXT/UTF8
Codec ID/Info                            : UTF-8 Plain Text
Duration                                 : 1 h 30 min
Bit rate                                 : 0 b/s
Count of elements                        : 14
Stream size                              : 488 Bytes (0%)
Title                                    : Subtítulos Español Forzados
Language                                 : Spanish
Default                                  : Yes
Forced                                   : No

Menu
00:00:00.000                             : en:Studio Logo
00:00:23.000                             : en:Title Sequence
00:01:00.000                             : en:Echo wakes up to go to school
00:03:04.000                             : en:Abby and Echo grab lunch together
00:06:36.000                             : en:Life at home
00:10:08.000                             : en:Marc's new car yields a discovery
00:17:36.000                             : en:Echo meets with a psychiatrist
00:20:02.000                             : en:Echo keeps reading Zoe's diary
00:22:04.000                             : en:Echo sees Marc at lunch
00:24:48.000                             : en:Echo and Abby go to a party
00:28:43.000                             : en:Zoe starts her part time job
00:30:54.000                             : en:Zoe brings Marc to Theresa's party
00:34:01.000                             : en:Echo goes to her first high school dance
00:41:05.000                             : en:Zoe works toward a modeling career
00:44:42.000                             : en:Echo remembers something
00:47:19.000                             : en:Echo comes to the party
00:50:52.000                             : en:Echo follows in Zoe's tracks
00:54:40.000                             : en:Echo finds out what Zoe left
01:00:38.000                             : en:Another session with the psychiatrist
01:03:08.000                             : en:Echo tells her plan to Marc
01:05:31.000                             : en:Jason invites Echo to his place
01:10:42.000                             : en:Marc distracts Jason
01:14:16.000                             : en:Jason offers a deal
01:18:06.000                             : en:Jason and Tom argue about what to do next
01:21:38.000                             : en:Echo tries to escape
01:23:27.000                             : en:The truth always manages to come out
01:28:34.000                             : en:It's time to move on
01:30:44.000                             : en:End Credits

CONTRASEÑA




DESCARGAR

Todos los links son Intercambiables




[Hidden content]




[Hidden content]




[Hidden content]




[Hidden content]




[Hidden content]
Gracias por esta novedad!
 

El14mago

Active member
Miembro VIP
Registrado
10 Sep 2014
Mensajes
998
Puntos de reacción
34
Puntos
28
Edad
51
Gracias por el aporte.-
 

flujo

Well-known member
Registrado
28 Dic 2014
Mensajes
6,958
Puntos de reacción
224
Puntos
83
Saving Zoe 2019



SINOPSIS

Ha pasado un año desde que su hermana fuese asesinada, y Echo sigue sin levantar cabeza. Con su madre sumida en una depresión y ante la ausencia de su padre, que prefiere trabajar a soportar el ambiente en casa, la joven muchacha se ve obligada a ser el sostén de una familia que está a punto de quebrar. Un día, a poco de haber comenzado su primer año como universitaria, recibe un regalo inesperado: el novio de Zoe le entrega el diario de su hermana fallecida. Aunque al principio decide no leerlo, pronto cae en la tentación de conocer su vida secreta. (FILMAFFINITY)

MÁS INFORMACIÓN




TRAILER



CAPTURAS

Saving Zoe 2019


Saving Zoe 2019



MEDIAINFO

Código:
General
Complete name                            : Saving Zoe (2019) 1080p AMZN WEB-DL Dual Latino-Inglés [Subt. Esp].mkv
Format                                   : Matroska
Format version                           : Version 4
File size                                : 5.04 GiB
Duration                                 : 1 h 35 min
Overall bit rate                         : 7 575 kb/s
Movie name                               : Saving Zoe (2019) 1080p AMZN WEB-DL Dual Latino-Inglés [Subt. Esp] [www.club-hd.com]
Encoded date                             : UTC 2020-04-02 18:48:39
Writing application                      : mkvmerge v27.0.0 ('Metropolis') 64-bit
Writing library                          : libebml v1.3.6 + libmatroska v1.4.9

Video
ID                                       : 1
Format                                   : AVC
Format/Info                              : Advanced Video Codec
Format profile                           : High@L4
Format settings                          : CABAC / 4 Ref Frames
Format settings, CABAC                   : Yes
Format settings, Reference frames        : 4 frames
Codec ID                                 : V_MPEG4/ISO/AVC
Duration                                 : 1 h 35 min
Bit rate mode                            : Constant
Bit rate                                 : 6 677 kb/s
Nominal bit rate                         : 10 000 kb/s
Width                                    : 1 920 pixels
Height                                   : 800 pixels
Display aspect ratio                     : 2.40:1
Frame rate mode                          : Constant
Frame rate                               : 23.976 (24000/1001) FPS
Color space                              : YUV
Chroma subsampling                       : 4:2:0
Bit depth                                : 8 bits
Scan type                                : Progressive
Bits/(Pixel*Frame)                       : 0.181
Stream size                              : 4.44 GiB (88%)
Title                                    : Saving Zoe (2019) 1080p AMZN WEB-DL Dual Latino-Inglés [Subt. Esp]
Language                                 : English
Default                                  : Yes
Forced                                   : No
Color range                              : Limited
Color primaries                          : BT.709
Transfer characteristics                 : BT.709
Matrix coefficients                      : BT.709

Audio #1
ID                                       : 2
Format                                   : AC-3
Format/Info                              : Audio Coding 3
Commercial name                          : Dolby Digital
Codec ID                                 : A_AC3
Duration                                 : 1 h 35 min
Bit rate mode                            : Constant
Bit rate                                 : 256 kb/s
Channel(s)                               : 2 channels
Channel layout                           : L R
Sampling rate                            : 48.0 kHz
Frame rate                               : 31.250 FPS (1536 SPF)
Compression mode                         : Lossy
Stream size                              : 174 MiB (3%)
Title                                    : Español Latino
Language                                 : Spanish
Service kind                             : Complete Main
Default                                  : Yes
Forced                                   : Yes

Audio #2
ID                                       : 3
Format                                   : E-AC-3
Format/Info                              : Enhanced AC-3
Commercial name                          : Dolby Digital Plus
Codec ID                                 : A_EAC3
Duration                                 : 1 h 35 min
Bit rate mode                            : Constant
Bit rate                                 : 640 kb/s
Channel(s)                               : 6 channels
Channel layout                           : L R C LFE Ls Rs
Sampling rate                            : 48.0 kHz
Frame rate                               : 31.250 FPS (1536 SPF)
Compression mode                         : Lossy
Stream size                              : 436 MiB (8%)
Title                                    : Inglés
Language                                 : English
Service kind                             : Complete Main
Default                                  : No
Forced                                   : No

Text #1
ID                                       : 4
Format                                   : UTF-8
Codec ID                                 : S_TEXT/UTF8
Codec ID/Info                            : UTF-8 Plain Text
Duration                                 : 1 h 30 min
Bit rate                                 : 44 b/s
Count of elements                        : 983
Stream size                              : 29.3 KiB (0%)
Title                                    : Subtítulos Español
Language                                 : Spanish
Default                                  : No
Forced                                   : No

Text #2
ID                                       : 5
Format                                   : UTF-8
Codec ID                                 : S_TEXT/UTF8
Codec ID/Info                            : UTF-8 Plain Text
Duration                                 : 1 h 30 min
Bit rate                                 : 0 b/s
Count of elements                        : 14
Stream size                              : 488 Bytes (0%)
Title                                    : Subtítulos Español Forzados
Language                                 : Spanish
Default                                  : Yes
Forced                                   : No

Menu
00:00:00.000                             : en:Studio Logo
00:00:23.000                             : en:Title Sequence
00:01:00.000                             : en:Echo wakes up to go to school
00:03:04.000                             : en:Abby and Echo grab lunch together
00:06:36.000                             : en:Life at home
00:10:08.000                             : en:Marc's new car yields a discovery
00:17:36.000                             : en:Echo meets with a psychiatrist
00:20:02.000                             : en:Echo keeps reading Zoe's diary
00:22:04.000                             : en:Echo sees Marc at lunch
00:24:48.000                             : en:Echo and Abby go to a party
00:28:43.000                             : en:Zoe starts her part time job
00:30:54.000                             : en:Zoe brings Marc to Theresa's party
00:34:01.000                             : en:Echo goes to her first high school dance
00:41:05.000                             : en:Zoe works toward a modeling career
00:44:42.000                             : en:Echo remembers something
00:47:19.000                             : en:Echo comes to the party
00:50:52.000                             : en:Echo follows in Zoe's tracks
00:54:40.000                             : en:Echo finds out what Zoe left
01:00:38.000                             : en:Another session with the psychiatrist
01:03:08.000                             : en:Echo tells her plan to Marc
01:05:31.000                             : en:Jason invites Echo to his place
01:10:42.000                             : en:Marc distracts Jason
01:14:16.000                             : en:Jason offers a deal
01:18:06.000                             : en:Jason and Tom argue about what to do next
01:21:38.000                             : en:Echo tries to escape
01:23:27.000                             : en:The truth always manages to come out
01:28:34.000                             : en:It's time to move on
01:30:44.000                             : en:End Credits

CONTRASEÑA




DESCARGAR

Todos los links son Intercambiables




[Hidden content]




[Hidden content]




[Hidden content]




[Hidden content]




[Hidden content]
gracias
 

Usuarios Que Están Viendo Este Tema (Total: 1, Miembros: 0, Invitados: 1)

Arriba