Scent of a Woman (1992) m-720p Dual Latino-Inglés [Subt. Esp] (Drama)

Maestro Revolver

Well-known member
Miembro del Staff
Administrador
Registro
9 Ago 2012
Mensajes
3.569
Reacciones
59.341
Puntos
113

Reputation:









TÍTULO ORIGINAL: Scent of a Woman
AÑO: 1992
DURACIÓN: 157 min.
PAÍS: USA
DIRECTOR: Martin Brest
GUIÓN: Bo Goldman (Remake: Ruggero Macari)
REPARTO: Al Pacino, Chris O'Donnell, Gabrielle Anwar, James Rebhorn, Philip Seymour Hoffman, Richard Venture, Bradley Whitford, Ron Eldard
PRODUCTORA: Universal Pictures
GÉNERO: Drama | Remake. Discapacidad
: http://www.imdb.es/title/tt0105323/

PREMIOS: 1992: Oscar: Mejor actor (Al Pacino). 4 nominaciones
1992: 3 Globos de Oro: Mejor película drama, actor (Al Pacino) y guión. 4 nominaciones
1993: Nominada Premios BAFTA: Mejor guión adaptado






Frank Slade (Al Pacino) es un malhumorado Coronel en la reserva del ejército norteamericano, retirado pues sufre de ceguera. Durante el fin de semana de Acción de Gracias el joven estudiante Charlie Simms (Chris O'Donnell), contratado por la familia de Slade, se queda en su casa para servirle de lazarillo y procurar que no beba mucho. Pero Frank tiene otros planes: irse a la gran ciudad de Nueva York... Remake de la película italiana de 1974 "Profumo di donna" (Perfume de mujer).
























La pelicula NO tiene ninguna marca... solo colocamos el nombre de esta web en las capturas






Código:
General
Format                                   : Matroska
Format version                           : Version 2
File size                                : 4.05 GiB
Duration                                 : 2h 36mn
Overall bit rate                         : 3 704 Kbps
Movie name                               : www.club-hd.com
Encoded date                             : UTC 2013-01-31 19:00:29
Writing application                      : mkvmerge v5.7.0 ('The Whirlwind') built on Jul  8 2012 20:08:51
Writing library                          : libebml v1.2.3 + libmatroska v1.3.0

Video
ID                                       : 1
Format                                   : AVC
Format/Info                              : Advanced Video Codec
Format profile                           : High@L4.0
Format settings, CABAC                   : Yes
Format settings, ReFrames                : 7 frames
Codec ID                                 : V_MPEG4/ISO/AVC
Duration                                 : 2h 36mn
Bit rate                                 : 3 000 Kbps
Width                                    : 1 280 pixels
Height                                   : 688 pixels
Display aspect ratio                     : 1.85:1
Original display aspect ratio            : 1.85:1
Frame rate mode                          : Constant
Frame rate                               : 23.976 fps
Color space                              : YUV
Chroma subsampling                       : 4:2:0
Bit depth                                : 8 bits
Scan type                                : Progressive
Bits/(Pixel*Frame)                       : 0.142
Stream size                              : 3.20 GiB (79%)
Title                                    : www.club-hd.com
Writing library                          : x264 core 120
Language                                 : English
Default                                  : Yes
Forced                                   : No
Color primaries                          : BT.709
Transfer characteristics                 : BT.709
Matrix coefficients                      : BT.709

Audio #1
ID                                       : 2
Format                                   : AC-3
Format/Info                              : Audio Coding 3
Mode extension                           : CM (complete main)
Format settings, Endianness              : Big
Codec ID                                 : A_AC3
Duration                                 : 2h 36mn
Bit rate mode                            : Constant
Bit rate                                 : 256 Kbps
Channel(s)                               : 2 channels
Channel positions                        : Front: L R
Sampling rate                            : 48.0 KHz
Bit depth                                : 16 bits
Compression mode                         : Lossy
Stream size                              : 286 MiB (7%)
Title                                    : www.club-hd.com  >>  Latino
Language                                 : Spanish
Default                                  : Yes
Forced                                   : No

Audio #2
ID                                       : 3
Format                                   : AC-3
Format/Info                              : Audio Coding 3
Mode extension                           : CM (complete main)
Format settings, Endianness              : Big
Codec ID                                 : A_AC3
Duration                                 : 2h 36mn
Bit rate mode                            : Constant
Bit rate                                 : 448 Kbps
Channel(s)                               : 6 channels
Channel positions                        : Front: L C R, Side: L R, LFE
Sampling rate                            : 48.0 KHz
Bit depth                                : 16 bits
Compression mode                         : Lossy
Stream size                              : 501 MiB (12%)
Title                                    : www.club-hd.com  >>  Inglés
Language                                 : English
Default                                  : No
Forced                                   : No

Text
ID                                       : 4
Format                                   : UTF-8
Codec ID                                 : S_TEXT/UTF8
Codec ID/Info                            : UTF-8 Plain Text
Language                                 : Spanish
Default                                  : No
Forced                                   : No










Enlaces de Mega y Fireload solo disponibles para Miembros VIP

Compra tu Membresía VIP y apoya a Club-HD!

ATENCIÓN! Tenemos TODO el material de Club-HD disponible por Mega y Fireload, enlaces 100% activos y online hasta la fecha

Llévate tus cuentas Mega PRO II gratis con tu membresía VIP!
Todos los posts vivos con links de Mega y Fireload.
Todo el material de Club-HD desbloqueado y sin publicidad.

Click Aquí para más información.




Enlaces de Mega y Fireload solo disponibles para Miembros VIP

Compra tu Membresía VIP y apoya a Club-HD!

ATENCIÓN! Tenemos TODO el material de Club-HD disponible por Mega y Fireload, enlaces 100% activos y online hasta la fecha

Llévate tus cuentas Mega PRO II gratis con tu membresía VIP!
Todos los posts vivos con links de Mega y Fireload.
Todo el material de Club-HD desbloqueado y sin publicidad.

Click Aquí para más información.



Para ver este contenido oculto, debes dar click en una de las siguientes reacciones : Like Like, Love Love, Haha Haha, Wow Wow, Sad Sad, Angry Angry
 
Última edición:

Lcreme

Well-known member
Registro
27 Ago 2012
Mensajes
2.092
Reacciones
105
Puntos
63

Reputation:

Tremendisima pelicula! Gracias siempre al 100 muchachos B)
 

carlos610

Well-known member
Registro
28 Ago 2012
Mensajes
1.777
Reacciones
961
Puntos
113
Edad
38
Ubicación
angol, araucania

Reputation:

que clásico, delatar o no, esa es la cuestión gran película a la lista de descarga ,, gracias revolver21 por la publicación saludos
 

Usuarios Que Están Viendo Este Tema (Total: 1, Miembros: 0, Invitados: 1)

Arriba