Schindler's List (1993) 1080p BDRip Dual Latino-Inglés [Subt. Esp] (Drama)

Maestro Revolver

Well-known member
Miembro del Staff
Administrador
Registro
9 Ago 2012
Mensajes
3.569
Reacciones
59.354
Puntos
113

Reputation:









TÍTULO ORIGINAL: Schindler's List
AÑO: 1993
DURACIÓN: 195 min.
PAÍS: USA
DIRECTOR: Steven Spielberg
GUIÓN: Steven Zaillian
REPARTO: Liam Neeson, Ben Kingsley, Ralph Fiennes, Caroline Goodall, Jonathan Sagall, Embeth Davidtz, Norbert Weisser, Martin S. Bergmann
PRODUCTORA: Universal Pictures / Amblin Entertainment
GÉNERO: Drama | Nazismo. Holocausto. Basado en hechos reales. II Guerra Mundial
: http://www.imdb.com/title/tt0108052/

PREMIOS: 1994: Premios Cesar: Nominada a la Mejor película extranjera
1993: 7 Oscars: Película, director, guión, montaje, música, dirección artística, fotografía
1993: 3 Globos de Oro: Película: drama, guión, director. 6 nominaciones
1993: 7 Premios BAFTA, incluyendo mejor película y director. 13 nominaciones
1993: National Board of Review: Mejor película
1993: Círculo de críticos de Nueva York: Película, Actor Secundario (Fiennes), Fotografía
1993: 6 premios Asociación de Críticos de Chicago, incluyendo Película, Director y Actor






Segunda Guerra Mundial (1939-1945). Oskar Schindler (Liam Neeson), un hombre de enorme astucia y talento para las relaciones públicas, organiza un ambicioso plan para ganarse la simpatía de los nazis. Después de la invasión de Polonia por los alemanes (1939), consigue, gracias a sus relaciones con los nazis, la propiedad de una fábrica de Cracovia. Allí emplea a cientos de operarios judíos, cuya explotación le hace prosperar rápidamente. Su gerente (Ben Kingsley), también judío, es el verdadero director en la sombra, pues Schindler carece completamente de conocimientos para dirigir una empresa.
























La pelicula NO tiene ninguna marca... solo colocamos el nombre de esta web en las capturas






Código:
General
Format                                   : Matroska
Format version                           : Version 2
File size                                : 14.9 GiB
Duration                                 : 3h 15mn
Overall bit rate                         : 10.9 Mbps
Movie name                               : www.club-hd.com
Encoded date                             : UTC 2013-03-29 17:08:37
Writing application                      : mkvmerge v5.7.0 ('The Whirlwind') built on Jul  8 2012 20:08:51
Writing library                          : libebml v1.2.3 + libmatroska v1.3.0

Video
ID                                       : 1
Format                                   : AVC
Format/Info                              : Advanced Video Codec
Format profile                           : High@L4.1
Format settings, CABAC                   : Yes
Format settings, ReFrames                : 4 frames
Codec ID                                 : V_MPEG4/ISO/AVC
Duration                                 : 3h 15mn
Bit rate                                 : 8 107 Kbps
Width                                    : 1 920 pixels
Height                                   : 1 040 pixels
Display aspect ratio                     : 1.85:1
Frame rate mode                          : Constant
Frame rate                               : 23.976 fps
Color space                              : YUV
Chroma subsampling                       : 4:2:0
Bit depth                                : 8 bits
Scan type                                : Progressive
Bits/(Pixel*Frame)                       : 0.169
Stream size                              : 10.8 GiB (72%)
Title                                    : www.club-hd.com
Writing library                          : x264 core 129 r2245 bc13772
Language                                 : English
Default                                  : Yes
Forced                                   : No

Audio #1
ID                                       : 2
Format                                   : AC-3
Format/Info                              : Audio Coding 3
Mode extension                           : CM (complete main)
Format settings, Endianness              : Big
Codec ID                                 : A_AC3
Duration                                 : 3h 15mn
Bit rate mode                            : Constant
Bit rate                                 : 640 Kbps
Channel(s)                               : 6 channels
Channel positions                        : Front: L C R, Side: L R, LFE
Sampling rate                            : 48.0 KHz
Bit depth                                : 16 bits
Compression mode                         : Lossy
Stream size                              : 894 MiB (6%)
Title                                    : www.club-hd.com  >>  Latino AC3 5.1
Language                                 : Spanish
Default                                  : Yes
Forced                                   : No

Audio #2
ID                                       : 3
Format                                   : AC-3
Format/Info                              : Audio Coding 3
Mode extension                           : CM (complete main)
Format settings, Endianness              : Big
Codec ID                                 : A_AC3
Duration                                 : 3h 15mn
Bit rate mode                            : Constant
Bit rate                                 : 640 Kbps
Channel(s)                               : 6 channels
Channel positions                        : Front: L C R, Side: L R, LFE
Sampling rate                            : 48.0 KHz
Bit depth                                : 16 bits
Compression mode                         : Lossy
Stream size                              : 894 MiB (6%)
Title                                    : www.club-hd.com  >>  Inglés AC3 5.1
Language                                 : English
Default                                  : No
Forced                                   : No

Audio #3
ID                                       : 4
Format                                   : DTS
Format/Info                              : Digital Theater Systems
Mode                                     : 16
Format settings, Endianness              : Big
Codec ID                                 : A_DTS
Duration                                 : 3h 15mn
Bit rate mode                            : Constant
Bit rate                                 : 1 509 Kbps
Channel(s)                               : 6 channels
Channel positions                        : Front: L C R, Side: L R, LFE
Sampling rate                            : 48.0 KHz
Bit depth                                : 24 bits
Compression mode                         : Lossy
Delay relative to video                  : 11ms
Stream size                              : 2.06 GiB (14%)
Title                                    : www.club-hd.com  >>  Inglés DTS 5.1
Language                                 : English
Default                                  : No
Forced                                   : No

Text #1
ID                                       : 5
Format                                   : UTF-8
Codec ID                                 : S_TEXT/UTF8
Codec ID/Info                            : UTF-8 Plain Text
Title                                    : Forzados
Language                                 : Spanish
Default                                  : Yes
Forced                                   : No

Text #2
ID                                       : 6
Format                                   : UTF-8
Codec ID                                 : S_TEXT/UTF8
Codec ID/Info                            : UTF-8 Plain Text
Language                                 : Spanish
Default                                  : No
Forced                                   : No

Menu
00:00:00.000                             : en:00:00:00.000
00:03:23.161                             : en:00:03:23.161
00:10:12.153                             : en:00:10:12.153
00:14:51.307                             : en:00:14:51.307
00:17:28.714                             : en:00:17:28.714
00:21:42.384                             : en:00:21:42.384
00:23:48.010                             : en:00:23:48.010
00:30:37.669                             : en:00:30:37.669
00:34:23.728                             : en:00:34:23.728
00:41:43.751                             : en:00:41:43.751
00:44:16.737                             : en:00:44:16.737
00:50:55.761                             : en:00:50:55.761
00:55:09.431                             : en:00:55:09.431
00:56:44.860                             : en:00:56:44.860
01:13:44.754                             : en:01:13:44.754
01:17:05.704                             : en:01:17:05.704
01:26:02.115                             : en:01:26:02.115
01:29:26.319                             : en:01:29:26.319
01:32:01.182                             : en:01:32:01.182
01:38:36.869                             : en:01:38:36.869
01:43:19.777                             : en:01:43:19.777
01:49:36.612                             : en:01:49:36.612
01:55:45.981                             : en:01:55:45.981
01:58:42.824                             : en:01:58:42.824
02:02:59.789                             : en:02:02:59.789
02:06:49.310                             : en:02:06:49.310
02:10:11.637                             : en:02:10:11.637
02:13:44.725                             : en:02:13:44.725
02:18:21.376                             : en:02:18:21.376
02:26:46.506                             : en:02:26:46.506
02:34:15.621                             : en:02:34:15.621
02:38:48.018                             : en:02:38:48.018
02:41:15.416                             : en:02:41:15.416
02:46:21.763                             : en:02:46:21.763
02:48:12.332                             : en:02:48:12.332
02:50:23.171                             : en:02:50:23.171
02:55:28.393                             : en:02:55:28.393
03:01:51.359                             : en:03:01:51.359
03:05:06.721                             : en:03:05:06.721
03:08:51.278                             : en:03:08:51.278











Enlaces de Mega y Fireload solo disponibles para Miembros VIP

Compra tu Membresía VIP y apoya a Club-HD!

ATENCIÓN! Tenemos TODO el material de Club-HD disponible por Mega y Fireload, enlaces 100% activos y online hasta la fecha

Llévate tus cuentas Mega PRO II gratis con tu membresía VIP!
Todos los posts vivos con links de Mega y Fireload.
Todo el material de Club-HD desbloqueado y sin publicidad.

Click Aquí para más información.



Enlaces de Mega y Fireload solo disponibles para Miembros VIP

Compra tu Membresía VIP y apoya a Club-HD!

ATENCIÓN! Tenemos TODO el material de Club-HD disponible por Mega y Fireload, enlaces 100% activos y online hasta la fecha

Llévate tus cuentas Mega PRO II gratis con tu membresía VIP!
Todos los posts vivos con links de Mega y Fireload.
Todo el material de Club-HD desbloqueado y sin publicidad.

Click Aquí para más información.







Para ver este contenido oculto, debes dar click en una de las siguientes reacciones : Like Like, Love Love, Haha Haha, Wow Wow, Sad Sad, Angry Angry


Para ver este contenido oculto, debes dar click en una de las siguientes reacciones : Like Like, Love Love, Haha Haha, Wow Wow, Sad Sad, Angry Angry
 
Última edición:

Lug

Well-known member
Registro
24 Oct 2012
Mensajes
1.691
Reacciones
37
Puntos
48
Edad
62

Reputation:

El primero, no lo puedo creer.
Espero la de 720.
Muchas gracias por esta magnífica película...
 

arkkangeldark

Well-known member
Registro
27 Ago 2012
Mensajes
3.445
Reacciones
576
Puntos
113
Edad
34
Ubicación
Torreon Coahuila

Reputation:

un gran clasico de clasicos, ahora que si no puede faltar en la lista esta lista :bsrs: gracias revolver
 

LANINADULCE

Well-known member
Miembro VIP
Registro
28 Ago 2012
Mensajes
3.084
Reacciones
118
Puntos
63
Edad
42

Reputation:

espero el 720 estupenda pelicula
 

Pedrum

The Buckminster
Registro
28 Ago 2012
Mensajes
1.092
Reacciones
1.546
Puntos
113
Ubicación
Bahia Blanca

Reputation:

Que increible pelicula que nos regalaste Revolver..

Me gustaria tenerla en 1080 pero ya vengo medio condicionado, espero tambien la 720 mejor.

Aplausos para ti R21 :aplausos: :aplausos: :aplausos:

Saludos amigo! victory
 

pelao_lira

New member
Registro
28 Ago 2012
Mensajes
292
Reacciones
2
Puntos
0

Reputation:

WAAAA¡¡¡ hace tiempo que la andaba buscando, pero no la encontraba con la mejor calidad.
Gracias Desc_g_
 

sinpk2

New member
Registro
29 Ago 2012
Mensajes
360
Reacciones
17
Puntos
0

Reputation:

gran pelicula mmmmm despues de star wars esta es mi favorita....gracias distingidos compañeros o mejor dicho GRACIAS TOTALES
 

sunker-123

New member
Registro
27 Ago 2012
Mensajes
2.433
Reacciones
200
Puntos
0
Edad
30

Reputation:

Muchas gracias R21, espero que la puedas subir en 720P...:LXR::LXR::LXR::LXR:
 

will1981g

New member
Registro
29 Ago 2012
Mensajes
309
Reacciones
0
Puntos
0

Reputation:

en esta pelicula la he visto un millon de veces pero todavia no entiendo lo de la ninha con vestido rojo si se fijan la movie es en blanco y negro mas sin embargo la ninha sale a color:)
 

Usuarios Que Están Viendo Este Tema (Total: 1, Miembros: 0, Invitados: 1)

Arriba