• Este aviso va dirigido a todos los nuevos miembros recien llegados a Club-HD. Les recordamos que la direccion URL de este sitio web es , asi que deben acceder únicamente por esta URL. Sean todos bienvenidos al Club!

Selah and the Spades (2019) 1080p AMZN WEB-DL Dual Latino-Inglés [Subt. Esp] (Drama. Adolescencia)

Dante Inferno

🔥Dante Inferno🔥
Miembro del Staff
Moderador
Uploader
Registrado
24 May 2016
Mensajes
549
Puntos de reacción
10,447
Puntos
93
Ubicación
Argentina
Sitio web
club-hd.com



SINOPSIS

En el complejo mundo del internado más importante de Pennsylvania, Haldwell, el cuerpo estudiantil está dividido en cinco facciones. Selah Summers (Jesse Williams) lidera con mano dura el más dominante de los cinco, además de encargarse de proporcionar a los adolescentes todo el material ilegal que puede encontrar, desde alcohol hasta pastillas. La tensión entre las facciones no tarda en aparecer, y cuando la mejor amiga de Selah, Maxxi (Lovie Simone), encuentra a un nuevo amor, la líder del grupo decide centrar toda su atención en una estudiante de último año, Paloma (Ana Mulvoy-Ten), a quien enseña las estratagemas que ella emplea para ser una buena líder. Sin embargo, Paloma prefiere centrarse en sus estudios, dejando a Selah sóla ante su peor enemigo: ella misma. (FILMAFFINITY)

MÁS INFORMACIÓN




TRAILER



CAPTURAS






MEDIAINFO

Código:
General
Complete name                            : Selah and the Spades (2019) 1080p AMZN WEB-DL Dual Latino-Inglés [Subt. Esp].mkv
Format                                   : Matroska
Format version                           : Version 4
File size                                : 7.10 GiB
Duration                                 : 1 h 37 min
Overall bit rate                         : 10.4 Mb/s
Movie name                               : Selah and the Spades (2019) 1080p WEB-DL AMZN Dual Latino-Inglés [Subt. Esp] [www.club-hd.com]
Encoded date                             : UTC 2020-04-21 00:16:16
Writing application                      : mkvmerge v27.0.0 ('Metropolis') 64-bit
Writing library                          : libebml v1.3.6 + libmatroska v1.4.9

Video
ID                                       : 1
Format                                   : AVC
Format/Info                              : Advanced Video Codec
Format profile                           : High@L4
Format settings                          : CABAC / 4 Ref Frames
Format settings, CABAC                   : Yes
Format settings, Reference frames        : 4 frames
Codec ID                                 : V_MPEG4/ISO/AVC
Duration                                 : 1 h 37 min
Bit rate mode                            : Constant
Bit rate                                 : 9 103 kb/s
Nominal bit rate                         : 10 000 kb/s
Width                                    : 1 920 pixels
Height                                   : 800 pixels
Display aspect ratio                     : 2.40:1
Frame rate mode                          : Constant
Frame rate                               : 23.976 (24000/1001) FPS
Color space                              : YUV
Chroma subsampling                       : 4:2:0
Bit depth                                : 8 bits
Scan type                                : Progressive
Bits/(Pixel*Frame)                       : 0.247
Stream size                              : 6.23 GiB (88%)
Title                                    : Selah and the Spades (2019) 1080p AMZN WEB-DL Dual Latino-Inglés [Subt. Esp]
Language                                 : English
Default                                  : Yes
Forced                                   : No
Color range                              : Limited
Color primaries                          : BT.709
Transfer characteristics                 : BT.709
Matrix coefficients                      : BT.709

Audio #1
ID                                       : 2
Format                                   : E-AC-3
Format/Info                              : Enhanced AC-3
Commercial name                          : Dolby Digital Plus
Codec ID                                 : A_EAC3
Duration                                 : 1 h 37 min
Bit rate mode                            : Constant
Bit rate                                 : 640 kb/s
Channel(s)                               : 6 channels
Channel layout                           : L R C LFE Ls Rs
Sampling rate                            : 48.0 kHz
Frame rate                               : 31.250 FPS (1536 SPF)
Compression mode                         : Lossy
Stream size                              : 448 MiB (6%)
Title                                    : Español Latino
Language                                 : Spanish
Service kind                             : Complete Main
Default                                  : Yes
Forced                                   : No

Audio #2
ID                                       : 3
Format                                   : E-AC-3
Format/Info                              : Enhanced AC-3
Commercial name                          : Dolby Digital Plus
Codec ID                                 : A_EAC3
Duration                                 : 1 h 37 min
Bit rate mode                            : Constant
Bit rate                                 : 640 kb/s
Channel(s)                               : 6 channels
Channel layout                           : L R C LFE Ls Rs
Sampling rate                            : 48.0 kHz
Frame rate                               : 31.250 FPS (1536 SPF)
Compression mode                         : Lossy
Stream size                              : 448 MiB (6%)
Title                                    : Inglés
Language                                 : English
Service kind                             : Complete Main
Default                                  : No
Forced                                   : No

Text #1
ID                                       : 4
Format                                   : UTF-8
Codec ID                                 : S_TEXT/UTF8
Codec ID/Info                            : UTF-8 Plain Text
Duration                                 : 1 h 36 min
Bit rate                                 : 45 b/s
Count of elements                        : 1222
Stream size                              : 32.1 KiB (0%)
Title                                    : Subtítulos Español
Language                                 : Spanish
Default                                  : No
Forced                                   : No

Text #2
ID                                       : 5
Format                                   : UTF-8
Codec ID                                 : S_TEXT/UTF8
Codec ID/Info                            : UTF-8 Plain Text
Duration                                 : 1 h 29 min
Bit rate                                 : 52 b/s
Count of elements                        : 1223
Stream size                              : 34.6 KiB (0%)
Title                                    : Subtítulos Español Forzados
Language                                 : Spanish
Default                                  : Yes
Forced                                   : No

CONTRASEÑA



DESCARGAR

Todos los links son Intercambiables




Enlaces de Mega y Google Drive solo disponibles para Miembros VIP

Compra tu Membresía VIP y apoya a Club-HD!

ATENCIÓN! Tenemos TODO el material de Club-HD disponible por Mega y Google Drive, enlaces 100% activos y online hasta la fecha

Llévate tus cuentas Mega PRO II gratis con tu membresía VIP!
Todos los posts vivos con links de Mega y Google Drive.
Todo el material de Club-HD desbloqueado y sin publicidad.

Click Aquí para más información.



Enlaces de Mega y Google Drive solo disponibles para Miembros VIP

Compra tu Membresía VIP y apoya a Club-HD!

ATENCIÓN! Tenemos TODO el material de Club-HD disponible por Mega y Google Drive, enlaces 100% activos y online hasta la fecha

Llévate tus cuentas Mega PRO II gratis con tu membresía VIP!
Todos los posts vivos con links de Mega y Google Drive.
Todo el material de Club-HD desbloqueado y sin publicidad.

Click Aquí para más información.



Para ver este contenido oculto, debes dar click en una de las siguientes reacciones: Like Like, Love Love, Haha Haha, Wow Wow, Sad Sad, Angry Angry



Para ver este contenido oculto, debes dar click en una de las siguientes reacciones: Like Like, Love Love, Haha Haha, Wow Wow, Sad Sad, Angry Angry



Para ver este contenido oculto, debes dar click en una de las siguientes reacciones: Like Like, Love Love, Haha Haha, Wow Wow, Sad Sad, Angry Angry
 
Última edición:

rachi

Active member
Registrado
21 Jul 2018
Mensajes
619
Puntos de reacción
57
Puntos
28
Gracias por el aporte
 

cripp

Well-known member
Registrado
27 Ago 2012
Mensajes
7,946
Puntos de reacción
451
Puntos
113
Gracias por compartir
 

flujo

Well-known member
Registrado
28 Dic 2014
Mensajes
6,958
Puntos de reacción
226
Puntos
83



SINOPSIS

En el complejo mundo del internado más importante de Pennsylvania, Haldwell, el cuerpo estudiantil está dividido en cinco facciones. Selah Summers (Jesse Williams) lidera con mano dura el más dominante de los cinco, además de encargarse de proporcionar a los adolescentes todo el material ilegal que puede encontrar, desde alcohol hasta pastillas. La tensión entre las facciones no tarda en aparecer, y cuando la mejor amiga de Selah, Maxxi (Lovie Simone), encuentra a un nuevo amor, la líder del grupo decide centrar toda su atención en una estudiante de último año, Paloma (Ana Mulvoy-Ten), a quien enseña las estratagemas que ella emplea para ser una buena líder. Sin embargo, Paloma prefiere centrarse en sus estudios, dejando a Selah sóla ante su peor enemigo: ella misma. (FILMAFFINITY)

MÁS INFORMACIÓN




TRAILER



CAPTURAS






MEDIAINFO

Código:
General
Complete name                            : Selah and the Spades (2019) 1080p AMZN WEB-DL Dual Latino-Inglés [Subt. Esp].mkv
Format                                   : Matroska
Format version                           : Version 4
File size                                : 7.10 GiB
Duration                                 : 1 h 37 min
Overall bit rate                         : 10.4 Mb/s
Movie name                               : Selah and the Spades (2019) 1080p WEB-DL AMZN Dual Latino-Inglés [Subt. Esp] [www.club-hd.com]
Encoded date                             : UTC 2020-04-21 00:16:16
Writing application                      : mkvmerge v27.0.0 ('Metropolis') 64-bit
Writing library                          : libebml v1.3.6 + libmatroska v1.4.9

Video
ID                                       : 1
Format                                   : AVC
Format/Info                              : Advanced Video Codec
Format profile                           : High@L4
Format settings                          : CABAC / 4 Ref Frames
Format settings, CABAC                   : Yes
Format settings, Reference frames        : 4 frames
Codec ID                                 : V_MPEG4/ISO/AVC
Duration                                 : 1 h 37 min
Bit rate mode                            : Constant
Bit rate                                 : 9 103 kb/s
Nominal bit rate                         : 10 000 kb/s
Width                                    : 1 920 pixels
Height                                   : 800 pixels
Display aspect ratio                     : 2.40:1
Frame rate mode                          : Constant
Frame rate                               : 23.976 (24000/1001) FPS
Color space                              : YUV
Chroma subsampling                       : 4:2:0
Bit depth                                : 8 bits
Scan type                                : Progressive
Bits/(Pixel*Frame)                       : 0.247
Stream size                              : 6.23 GiB (88%)
Title                                    : Selah and the Spades (2019) 1080p AMZN WEB-DL Dual Latino-Inglés [Subt. Esp]
Language                                 : English
Default                                  : Yes
Forced                                   : No
Color range                              : Limited
Color primaries                          : BT.709
Transfer characteristics                 : BT.709
Matrix coefficients                      : BT.709

Audio #1
ID                                       : 2
Format                                   : E-AC-3
Format/Info                              : Enhanced AC-3
Commercial name                          : Dolby Digital Plus
Codec ID                                 : A_EAC3
Duration                                 : 1 h 37 min
Bit rate mode                            : Constant
Bit rate                                 : 640 kb/s
Channel(s)                               : 6 channels
Channel layout                           : L R C LFE Ls Rs
Sampling rate                            : 48.0 kHz
Frame rate                               : 31.250 FPS (1536 SPF)
Compression mode                         : Lossy
Stream size                              : 448 MiB (6%)
Title                                    : Español Latino
Language                                 : Spanish
Service kind                             : Complete Main
Default                                  : Yes
Forced                                   : No

Audio #2
ID                                       : 3
Format                                   : E-AC-3
Format/Info                              : Enhanced AC-3
Commercial name                          : Dolby Digital Plus
Codec ID                                 : A_EAC3
Duration                                 : 1 h 37 min
Bit rate mode                            : Constant
Bit rate                                 : 640 kb/s
Channel(s)                               : 6 channels
Channel layout                           : L R C LFE Ls Rs
Sampling rate                            : 48.0 kHz
Frame rate                               : 31.250 FPS (1536 SPF)
Compression mode                         : Lossy
Stream size                              : 448 MiB (6%)
Title                                    : Inglés
Language                                 : English
Service kind                             : Complete Main
Default                                  : No
Forced                                   : No

Text #1
ID                                       : 4
Format                                   : UTF-8
Codec ID                                 : S_TEXT/UTF8
Codec ID/Info                            : UTF-8 Plain Text
Duration                                 : 1 h 36 min
Bit rate                                 : 45 b/s
Count of elements                        : 1222
Stream size                              : 32.1 KiB (0%)
Title                                    : Subtítulos Español
Language                                 : Spanish
Default                                  : No
Forced                                   : No

Text #2
ID                                       : 5
Format                                   : UTF-8
Codec ID                                 : S_TEXT/UTF8
Codec ID/Info                            : UTF-8 Plain Text
Duration                                 : 1 h 29 min
Bit rate                                 : 52 b/s
Count of elements                        : 1223
Stream size                              : 34.6 KiB (0%)
Title                                    : Subtítulos Español Forzados
Language                                 : Spanish
Default                                  : Yes
Forced                                   : No

CONTRASEÑA




DESCARGAR

Todos los links son Intercambiables




[Hidden content]




[Hidden content]




[Hidden content]




[Hidden content]




[Hidden content]
gracias
 

clasaase

Well-known member
Miembro del Staff
Colaborador
Moderador
Miembro VIP
Registrado
3 Sep 2012
Mensajes
2,268
Puntos de reacción
650
Puntos
113
Ubicación
Chile
El subtitulo que es ESPAÑOL LATINO en realidad es el CASTELLANO y
el FORZADO es el Latino Completo. No trae el forzado el mkv.

Forzado:

1
00:00:51,739 --> 00:00:53,817
"Me casé con un dueño de 9 vacas",
dijo Jinjur,

2
00:00:53,858 --> 00:00:55,848
"y ahora estoy feliz
y quiero vivir tranquila

3
00:00:55,880 --> 00:00:57,495
sin meterme
en lo que no me importa".

4
00:00:57,551 --> 00:00:59,504
"¿Dónde está tu marido?",
preguntó Ozma.

5
00:00:59,911 --> 00:01:03,762
"Está en casa cuidándose un ojo hinchado",
respondió Jinjur con calma.

6
00:01:04,004 --> 00:01:05,973
"El tonto insistía en ordeñar
la vaca roja

7
00:01:06,012 --> 00:01:09,543
y yo quería que ordeñara la blanca,
pero ya aprenderá para la próxima".

8
00:01:09,621 --> 00:01:11,122
L. Frank Baum, Ozma de Oz (1907)

9
00:01:25,119 --> 00:01:26,504
COLEGIO HALDWELL

10
00:04:30,020 --> 00:04:35,859
SELAH Y LAS ESPADAS

11
00:25:46,212 --> 00:25:47,782
D SOLEADO - BELLEZA NEGRA
HIERBA PURA

12
00:25:48,274 --> 00:25:49,399
TABLETAS DE ÁCIDO

13
00:26:47,064 --> 00:26:48,908
DIVIDE EN 4 Y COMPARTE
 

Usuarios Que Están Viendo Este Tema (Total: 1, Miembros: 0, Invitados: 1)

Arriba